<?xml version="1.0" standalone="no"?>
<!DOCTYPE svg PUBLIC "-//W3C//DTD SVG 1.1//EN" "http://www.w3.org/Graphics/SVG/1.1/DTD/svg11.dtd" >
<svg xmlns="http://www.w3.org/2000/svg">
<defs>
  <font id="dmzui" horiz-adv-x="256">
    <font-face font-family="dmzui"
      units-per-em="256" ascent="256"
      descent="0" />
    <missing-glyph horiz-adv-x="0" />
    <glyph glyph-name="delete-key"
      unicode="&#xEA02;"
      horiz-adv-x="256" d="M76.345 206.715C73.911 205.342 12.857 137.137 9.913 132.5C8.865 130.85 8.006 128.529 8.004 127.343C8.002 126.064 11.343 121.387 16.22 115.843C52.493 74.612 73.584 51.232 75.838 49.755C78.316 48.131 84.203 48.01 160.798 48.005L243.095 48L245.548 50.646L248 53.292L248 128.191L248 203.091L245.545 205.545L243.091 208L160.795 207.965C98.144 207.938 77.986 207.639 76.345 206.715M232 128L232 64L157.75 64.002L83.5 64.003L55.5 95.559C40.1 112.914 27.5 127.513 27.5 128C27.5 128.487 40.1 143.086 55.5 160.441L83.5 191.997L157.75 191.998L232 192L232 128" />
    <glyph glyph-name="i-remove"
      unicode="&#xEA03;"
      horiz-adv-x="256" d="M74.455 181.545C72.87 179.961 72 177.955 72 175.888C72 173.051 74.538 170.131 94.211 150.332L116.422 127.98L94.211 105.689C74.98 86.389 72 82.989 72 80.345C72 76.068 75.973 72 80.151 72C83.047 72 85.808 74.401 105.699 94.221L128 116.441L150.301 94.221C170.192 74.401 172.953 72 175.849 72C180.027 72 184 76.068 184 80.345C184 82.989 181.02 86.389 161.789 105.689L139.578 127.98L161.789 150.332C181.462 170.131 184 173.051 184 175.888C184 180.193 180.173 184 175.846 184C172.953 184 170.185 181.592 150.301 161.779L128 139.559L105.699 161.779C85.815 181.592 83.047 184 80.154 184C78.042 184 76.052 183.143 74.455 181.545" />
    <glyph glyph-name="bin"
      unicode="&#xEA04;"
      horiz-adv-x="256" d="M82.455 253.545C80.035 251.126 80 250.841 80 233.545L80 216L46.455 216L12.909 216L10.455 213.545C7.266 210.357 7.265 206.085 10.452 202.646L12.905 200L128 200L243.095 200L245.548 202.646C248.735 206.085 248.734 210.357 245.545 213.545L243.091 216L209.545 216L176 216L176 233.545C176 250.841 175.965 251.126 173.545 253.545L171.091 256L128 256L84.909 256L82.455 253.545M160 228L160 216L128 216L96 216L96 228L96 240L128 240L160 240L160 228M34.436 181.527L31.964 179.055L32.232 101.756L32.5 24.456L35.834 17.685C38.231 12.816 40.573 9.803 44.17 6.96C53.29 -0.249 51.205 -0.086 130.096 0.224C199.729 0.497 200.551 0.524 205.149 2.649C211.384 5.532 217.627 11.973 220.852 18.852L223.5 24.5L223.774 101.772L224.048 179.043L221.569 181.522C218.298 184.793 213.712 184.803 210.455 181.545L208 179.091L208 104.013C208 20.889 208.289 24.61 201.434 19.382L197.656 16.5L128 16.5L58.344 16.5L54.566 19.382C47.711 24.61 48 20.889 48 104.013L48 179.091L45.545 181.545C42.29 184.8 37.702 184.793 34.436 181.527M82.455 141.545L80 139.091L80 96.191L80 53.292L82.452 50.646C85.744 47.094 90.256 47.094 93.548 50.646L96 53.292L96 96.191L96 139.091L93.545 141.545C91.998 143.093 89.948 144 88 144C86.052 144 84.002 143.093 82.455 141.545M122.455 141.545L120 139.091L120 96.191L120 53.292L122.452 50.646C125.744 47.094 130.256 47.094 133.548 50.646L136 53.292L136 96.191L136 139.091L133.545 141.545C131.998 143.093 129.948 144 128 144C126.052 144 124.002 143.093 122.455 141.545M162.455 141.545L160 139.091L160 96.191L160 53.292L162.452 50.646C165.744 47.094 170.256 47.094 173.548 50.646L176 53.292L176 96.191L176 139.091L173.545 141.545C171.998 143.093 169.948 144 168 144C166.052 144 164.002 143.093 162.455 141.545" />
    <glyph glyph-name="attachment"
      unicode="&#xEA06;"
      horiz-adv-x="256" d="M97.173 253.971C77.472 248.81 60.413 230.258 57.061 210.348C56.243 205.494 55.998 182.824 56.219 132.5L56.53 61.5L58.879 54.5C68.381 26.182 89.899 6.75 117.628 1.444C156.095 -5.916 192.225 15.994 205.116 54.5C207.459 61.5 207.459 61.502 207.778 124.247L208.097 186.994L205.594 189.497C202.298 192.793 197.722 192.813 194.455 189.545L192 187.091L191.983 128.295C191.963 62.843 191.867 61.667 185.459 48.885C180.47 38.934 168.348 26.876 158.599 22.166C141.775 14.039 122.225 14.039 105.401 22.166C95.054 27.165 83.376 39.007 78.163 49.785C75.895 54.475 73.687 60.936 73.044 64.766C72.257 69.45 72.002 92.503 72.206 140.5L72.5 209.5L75.709 216.274C83.659 233.059 100.659 242.175 118.498 239.219C122.072 238.627 127.135 237.098 129.748 235.821C136.76 232.396 144.539 224.196 148.291 216.274L151.5 209.5L151.5 139.337L151.5 69.173L148.5 64.913C140.228 53.168 123.774 53.167 115.5 64.912L112.5 69.17L112 132.674L111.5 196.178L109.139 198.089C105.839 200.76 101.434 200.525 98.426 197.517L95.943 195.034L96.222 131.267L96.5 67.5L99.3 61.5C102.944 53.69 109.743 46.858 117.39 43.324C122.578 40.926 124.783 40.5 132 40.5C139.217 40.5 141.422 40.926 146.61 43.324C154.257 46.858 161.056 53.69 164.7 61.5L167.5 67.5L167.791 135.5C167.995 183.283 167.74 205.536 166.934 210.348C164.503 224.854 153.774 240.133 140.25 248.348C128.325 255.592 111.665 257.767 97.173 253.971" />
    <glyph glyph-name="pen-2"
      unicode="&#xEA08;"
      horiz-adv-x="256" d="M182.885 246.681C180.897 245.937 177.972 244.385 176.385 243.231C174.798 242.077 139.941 207.466 98.924 166.317L24.348 91.5L16.019 53.46C8.323 18.313 7.797 15.197 9.097 12.483C11.724 7.001 12.465 7.065 54.002 16.344L92.422 24.927L167.275 99.714C209.499 141.901 243.298 176.462 244.813 179C247.055 182.755 247.496 184.658 247.474 190.5C247.455 195.322 246.875 198.589 245.606 201C243.024 205.909 206.34 242.723 201.572 245.19C196.614 247.755 187.664 248.469 182.885 246.681M212.297 213.422C222.309 203.204 230.893 194.008 231.374 192.986C231.855 191.964 231.981 190.086 231.654 188.814C231.327 187.541 197.858 153.329 157.279 112.786L83.5 39.071L55.7 32.919C40.41 29.535 27.661 27.005 27.37 27.297C27.078 27.588 29.642 40.423 33.066 55.818L39.292 83.81L113.412 157.905C181.449 225.92 187.801 232 190.813 232C193.751 232 196.002 230.054 212.297 213.422" />
    <glyph glyph-name="settings-gear"
      unicode="&#xEA0C;"
      horiz-adv-x="256" d="M99.832 254.471C96.618 252.726 96.208 251.122 94.093 232.004L92.489 217.507L84.994 213.482C80.872 211.267 75.475 208.062 73 206.359L68.5 203.262L53 210.098C44.475 213.858 36.773 216.949 35.885 216.967C34.997 216.985 33.13 216.104 31.737 215.008C28.999 212.854 5.538 172.991 4.444 168.635C3.42 164.555 5.834 161.873 19.787 151.582L32.5 142.206L32.394 127.862L32.287 113.519L20.394 104.807C5.981 94.248 3.604 91.729 4.384 87.831C5.219 83.656 28.772 43.324 31.737 40.992C33.13 39.896 34.938 39 35.755 39C36.572 39 44.295 42.079 52.917 45.842L68.595 52.683L71.743 50.255C73.475 48.92 78.853 45.728 83.693 43.163L92.494 38.5L94.095 24C96.114 5.721 96.663 3.349 99.302 1.501C102.478 -0.724 153.522 -0.724 156.698 1.501C159.336 3.349 159.885 5.718 161.906 23.981L163.508 38.462L172.504 43.316C177.452 45.986 182.829 49.185 184.453 50.426L187.405 52.683L203.083 45.842C211.705 42.079 219.428 39 220.245 39C221.062 39 222.866 39.893 224.254 40.985C226.962 43.115 250.487 83.109 251.57 87.423C252.57 91.409 250.241 93.984 236.267 104.34L223.5 113.801L223.606 128.074L223.713 142.348L236.324 151.66C250.121 161.847 252.575 164.571 251.57 168.577C250.487 172.891 226.962 212.885 224.254 215.015C222.866 216.107 221.003 216.985 220.115 216.967C219.227 216.949 211.525 213.858 203 210.098L187.5 203.262L183 206.359C180.525 208.062 175.128 211.267 171.006 213.482L163.511 217.507L161.907 232.004C159.76 251.41 159.41 252.737 155.966 254.517C151.822 256.661 103.791 256.621 99.832 254.471M145 238.452C145 232.473 148.406 209.093 149.532 207.346C150.295 206.162 155.55 202.965 161.21 200.242C166.869 197.52 174.166 193.201 177.425 190.646C180.683 188.091 184.369 186 185.616 186C186.862 186 194.047 188.7 201.582 192C209.117 195.3 215.623 198 216.039 198C216.718 198 233 170.776 233 169.641C233 169.383 227.206 164.878 220.124 159.63C213.042 154.381 206.971 149.367 206.633 148.487C206.296 147.607 206.556 142.637 207.212 137.443C208.139 130.103 208.136 125.872 207.198 118.443C206.403 112.153 206.322 108.267 206.961 107.073C207.494 106.076 213.571 101.122 220.465 96.065C227.359 91.007 233 86.649 233 86.38C233 85.145 216.699 58 215.957 58C215.496 58 208.953 60.7 201.418 64C193.883 67.3 186.859 70 185.81 70C184.761 70 179.897 67.123 175 63.608C170.104 60.092 162.892 55.957 158.974 54.42C155.056 52.883 151.044 50.6 150.059 49.347C148.228 47.02 147.939 45.452 145.899 26.75L144.726 16L128 16L111.274 16L110.101 26.75C108.061 45.452 107.772 47.02 105.941 49.347C104.956 50.6 100.944 52.883 97.026 54.42C93.108 55.957 85.896 60.092 81 63.608C76.103 67.123 71.239 70 70.19 70C69.141 70 62.117 67.3 54.582 64C47.047 60.7 40.492 58 40.016 58C39.251 58 23 85.09 23 86.365C23 86.642 28.641 91.007 35.535 96.065C42.429 101.122 48.506 106.076 49.039 107.073C49.678 108.267 49.597 112.153 48.802 118.443C47.86 125.907 47.86 130.093 48.802 137.557C49.59 143.795 49.675 147.738 49.048 148.911C48.519 149.9 42.657 154.658 36.021 159.484C29.386 164.311 23.719 168.645 23.429 169.115C22.818 170.103 38.759 198 39.934 198C40.365 198 46.883 195.3 54.418 192C61.953 188.7 69.128 186 70.362 186C71.595 186 75.506 188.202 79.052 190.894C85.248 195.597 93.403 200.186 101.172 203.341C103.192 204.162 105.522 205.883 106.35 207.166C107.582 209.076 111 232.073 111 238.452C111 239.789 113.322 240 128 240C142.678 240 145 239.789 145 238.452M119.932 167.043C109.359 165.133 97.135 155.712 92.15 145.633C86.935 135.088 86.935 120.946 92.15 110.339C95.165 104.206 104.206 95.165 110.339 92.15C120.946 86.935 135.054 86.935 145.661 92.15C151.794 95.165 160.835 104.206 163.85 110.339C169.065 120.946 169.065 135.088 163.85 145.633C160.362 152.686 152.195 160.552 144.815 163.965C137.804 167.208 127.737 168.454 119.932 167.043M138.622 149.177C146.993 144.873 151.434 137.53 151.429 128C151.419 106.942 126.711 96.144 111.812 110.685C98.256 123.917 103.589 145.098 121.994 151.124C125.845 152.385 134.311 151.394 138.622 149.177" />
    <glyph glyph-name="small-down"
      unicode="&#xEA11;"
      horiz-adv-x="256" d="M74.455 157.545C72.859 155.95 72 153.958 72 151.852C72 148.949 74.732 145.875 98.255 122.306C122.577 97.936 124.766 96 128 96C131.234 96 133.423 97.936 157.745 122.306C181.268 145.875 184 148.949 184 151.852C184 156.194 180.192 160 175.846 160C172.953 160 170.185 157.592 150.301 137.779L128 115.559L105.699 137.779C85.815 157.592 83.047 160 80.154 160C78.042 160 76.052 159.143 74.455 157.545" />
    <glyph glyph-name="small-left"
      unicode="&#xEA12;"
      horiz-adv-x="256" d="M122.271 157.729C98.143 133.601 96 131.179 96 128.035C96 124.893 98.152 122.456 122.255 98.306C145.976 74.539 148.827 72 151.802 72C156.028 72 160 76.043 160 80.345C160 82.989 157.02 86.389 137.789 105.689L115.578 127.98L137.789 150.332C157.462 170.131 160 173.051 160 175.888C160 180.208 156.174 184 151.816 184C148.867 184 145.935 181.393 122.271 157.729" />
    <glyph glyph-name="small-right"
      unicode="&#xEA13;"
      horiz-adv-x="256" d="M98.455 181.545C96.87 179.961 96 177.955 96 175.888C96 173.051 98.538 170.131 118.211 150.332L140.422 127.98L118.211 105.689C98.98 86.389 96 82.989 96 80.345C96 76.043 99.972 72 104.198 72C107.173 72 110.024 74.539 133.745 98.306C157.848 122.456 160 124.893 160 128.035C160 131.179 157.857 133.601 133.729 157.729C110.065 181.393 107.133 184 104.184 184C102.04 184 100.061 183.152 98.455 181.545" />
    <glyph glyph-name="small-up"
      unicode="&#xEA14;"
      horiz-adv-x="256" d="M98.271 133.729C75.272 110.729 72 107.074 72 104.375C72 100.067 75.958 96 80.151 96C83.047 96 85.808 98.401 105.699 118.221L128 140.441L150.301 118.221C170.192 98.401 172.953 96 175.849 96C180.042 96 184 100.067 184 104.375C184 107.074 180.728 110.729 157.729 133.729C133.497 157.961 131.19 160 128 160C124.81 160 122.503 157.961 98.271 133.729" />
    <glyph glyph-name="small-triangle-down"
      unicode="&#xEA15;"
      horiz-adv-x="256" d="M66.352 173.443C64.401 171.492 63.893 170.129 64.209 167.693C64.491 165.521 73.984 151.155 93.885 122.782C120.905 84.259 123.404 81.015 126.511 80.432C128.72 80.017 130.581 80.294 131.926 81.235C135.536 83.764 191.145 164.12 191.715 167.632C192.128 170.178 191.699 171.392 189.664 173.427L187.091 176L128 176L68.909 176L66.352 173.443M168 159.491C168 158.41 128.766 103 128 103C127.234 103 88 158.41 88 159.491C88 159.771 106 160 128 160C150 160 168 159.771 168 159.491" />
    <glyph glyph-name="small-triangle-left"
      unicode="&#xEA16;"
      horiz-adv-x="256" d="M123.282 162.418C84.263 135.097 81.016 132.602 80.432 129.49C80.017 127.28 80.293 125.419 81.235 124.074C83.77 120.456 164.121 64.855 167.641 64.283C170.266 63.857 171.354 64.278 173.436 66.526L176 69.292L176 128L176 186.708L173.548 189.354C172.013 191.01 170.048 191.996 168.298 191.989C166.259 191.982 154.051 183.962 123.282 162.418M160 128C160 106 159.771 88 159.491 88C158.053 88 102.964 127.393 103.241 128.223C103.586 129.259 157.974 167.819 159.25 167.933C159.662 167.97 160 150 160 128" />
    <glyph glyph-name="small-triangle-right"
      unicode="&#xEA17;"
      horiz-adv-x="256" d="M82.455 189.545L80 187.091L80 129.093C80 88.711 80.337 70.354 81.11 68.657C82.561 65.473 86.207 63.584 89.369 64.378C92.333 65.122 171.688 120.318 174.228 123.402C176.266 125.877 176.506 129.949 174.75 132.268C174.063 133.176 154.825 146.983 132 162.949C101.799 184.076 89.739 191.982 87.705 191.99C86.06 191.996 83.899 190.99 82.455 189.545M125.009 148.405C140.404 137.628 153 128.446 153 128C153 127.234 97.59 88 96.509 88C96.229 88 96 106 96 128C96 150 96.229 168 96.509 168C96.788 168 109.613 159.182 125.009 148.405" />
    <glyph glyph-name="small-triangle-up"
      unicode="&#xEA18;"
      horiz-adv-x="256" d="M123.732 174.75C122.824 174.062 109.017 154.825 93.051 132C73.175 103.587 64.017 89.679 64.01 87.896C64.005 86.464 65.104 84.101 66.452 82.646L68.905 80L126.905 80C167.882 80 185.634 80.332 187.385 81.13C190.342 82.477 192.449 87.01 191.503 89.99C190.644 92.698 135.433 171.894 132.763 174.25C130.446 176.294 126.088 176.535 123.732 174.75M148.405 125.009C159.182 109.613 168 96.788 168 96.509C168 96.229 150 96 128 96C106 96 88 96.229 88 96.509C88 97.59 127.234 153 128 153C128.446 153 137.628 140.404 148.405 125.009" />
    <glyph glyph-name="arrow-down-2"
      unicode="&#xEA19;"
      horiz-adv-x="256" d="M122.455 245.545L120 243.091L120 139.317L120 35.544L89.712 65.772C62.405 93.025 59.104 96 56.167 96C51.799 96 48 92.201 48 87.835C48 84.884 51.587 80.988 86.253 46.289C122.002 10.506 124.734 8 128 8C131.266 8 133.998 10.506 169.747 46.289C204.413 80.988 208 84.884 208 87.835C208 92.201 204.201 96 199.833 96C196.896 96 193.595 93.025 166.288 65.772L136 35.544L136 139.317L136 243.091L133.545 245.545C131.998 247.093 129.948 248 128 248C126.052 248 124.002 247.093 122.455 245.545" />
    <glyph glyph-name="arrow-left-2"
      unicode="&#xEA1A;"
      horiz-adv-x="256" d="M46.265 169.735C10.611 134.082 8 131.234 8 128C8 124.766 10.611 121.918 46.265 86.265C81.078 51.451 84.825 48 87.812 48C92.034 48 96 52.048 96 56.358C96 59.044 92.251 63.18 65.772 89.712L35.544 120L139.32 120L243.095 120L245.548 122.646C248.735 126.085 248.734 130.357 245.545 133.545L243.091 136L139.332 136L35.574 136L65.787 166.319C92.897 193.524 96 196.969 96 199.864C96 204.212 92.186 208 87.81 208C84.826 208 81.067 204.538 46.265 169.735" />
    <glyph glyph-name="arrow-right-2"
      unicode="&#xEA1B;"
      horiz-adv-x="256" d="M162.455 205.545C160.863 203.954 160 201.957 160 199.864C160 196.969 163.103 193.524 190.213 166.319L220.426 136L116.668 136L12.909 136L10.455 133.545C7.266 130.357 7.265 126.085 10.452 122.646L12.905 120L116.68 120L220.456 120L190.228 89.712C163.749 63.18 160 59.044 160 56.358C160 52.048 163.966 48 168.188 48C171.175 48 174.922 51.451 209.735 86.265C245.389 121.918 248 124.766 248 128C248 131.234 245.389 134.082 209.735 169.735C174.933 204.538 171.174 208 168.19 208C166.04 208 164.063 207.154 162.455 205.545" />
    <glyph glyph-name="arrow-up-2"
      unicode="&#xEA1C;"
      horiz-adv-x="256" d="M86.265 209.735C52.426 175.897 48 171.114 48 168.382C48 164.06 51.955 160 56.164 160C59.104 160 62.397 162.967 89.712 190.228L120 220.456L120 116.874L120 13.292L122.452 10.646C125.744 7.094 130.256 7.094 133.548 10.646L136 13.292L136 116.874L136 220.456L166.288 190.228C193.603 162.967 196.896 160 199.836 160C204.045 160 208 164.06 208 168.382C208 171.114 203.574 175.897 169.735 209.735C134.082 245.389 131.234 248 128 248C124.766 248 121.918 245.389 86.265 209.735" />
    <glyph glyph-name="chart-bar-33"
      unicode="&#xEA1D;"
      horiz-adv-x="256" d="M154.455 253.545C151.266 250.357 151.265 246.085 154.452 242.646L156.905 240L172.7 240L188.496 240L158.265 209.769L128.033 179.538L109.705 197.769C93.115 214.271 91.053 216 87.963 216C84.847 216 82.608 214.059 62.275 193.725C42.887 174.337 40 171.051 40 168.371C40 164.073 43.96 160 48.141 160C51.001 160 53.508 162.119 69.689 178.215L88 196.429L106.311 178.215C122.867 161.747 124.949 160 128.028 160C131.167 160 134.108 162.671 165.716 194.231L200 228.461L200 212.877C200 197.72 200.067 197.219 202.452 194.646C204.086 192.883 205.937 192 208 192C210.063 192 211.914 192.883 213.548 194.646L216 197.292L216 224.191L216 251.091L213.545 253.545L211.091 256L184 256L156.909 256L154.455 253.545M194.455 165.545L192 163.091L192 84.191L192 5.292L194.452 2.646L196.905 0L224 0L251.095 0L253.548 2.646L256 5.292L256 84.191L256 163.091L253.545 165.545L251.091 168L224 168L196.909 168L194.455 165.545M240 84L240 16L224 16L208 16L208 84L208 152L224 152L240 152L240 84M98.455 117.545L96 115.091L96 60.191L96 5.292L98.452 2.646L100.905 0L128 0L155.095 0L157.548 2.646L160 5.292L160 60.191L160 115.091L157.545 117.545L155.091 120L128 120L100.909 120L98.455 117.545M144 60L144 16L128 16L112 16L112 60L112 104L128 104L144 104L144 60M4.5 70.792C0.122 68.281 0.065 67.837 0.032 35.886L0 5.273L2.636 2.636L5.273 0L32 0L58.727 0L61.364 2.636L64 5.273L63.968 35.886C63.935 68.056 63.889 68.401 59.316 70.837C56.299 72.444 7.31 72.404 4.5 70.792M48 36L48 16L32 16L16 16L16 36L16 56L32 56L48 56L48 36" />
    <glyph glyph-name="geometry"
      unicode="&#xEA1E;"
      horiz-adv-x="256" d="M59.135 230.135C55.562 226.562 8 146.2 8 143.736C8 142.392 9.104 140.101 10.452 138.646L12.905 136L63.002 136C105.413 136 113.541 136.228 115.979 137.489C119.201 139.155 120.473 141.979 119.589 145.5C118.769 148.77 71.347 227.598 68.74 230.028C66.071 232.514 61.564 232.564 59.135 230.135M185.173 222.033C161.329 215.583 144.043 192.671 144.032 167.5C144.021 142.669 162.374 119.688 187.064 113.615C216.58 106.354 247.463 125.418 254.494 155.24C260.995 182.81 244.895 211.837 218 221.039C208.679 224.228 194.837 224.647 185.173 222.033M81.201 179.968L97.901 152L64 152L30.099 152L46.799 179.968C55.985 195.35 63.725 207.936 64 207.936C64.275 207.936 72.015 195.35 81.201 179.968M208.006 206.999C220.022 204.72 230.686 196.146 236.268 184.274C239.149 178.146 239.453 176.594 239.453 168C239.453 159.416 239.148 157.85 236.283 151.759C228.427 135.051 211.126 125.857 193.361 128.951C180.156 131.25 169.543 139.41 163.693 151.759C160.789 157.891 160.503 159.359 160.529 168C160.555 176.555 160.874 178.174 163.738 184.274C171.908 201.68 189.212 210.563 208.006 206.999M58.455 101.545L56 99.091L56 56.191L56 13.292L58.452 10.646L60.905 8L104 8L147.095 8L149.548 10.646L152 13.292L152 56.191L152 99.091L149.545 101.545L147.091 104L104 104L60.909 104L58.455 101.545M136 56L136 24L104 24L72 24L72 56L72 88L104 88L136 88L136 56" />
    <glyph glyph-name="bookmark"
      unicode="&#xEA1F;"
      horiz-adv-x="256" d="M46.296 254.564C36.652 251.522 27.28 241.553 25.084 232C24.406 229.053 24.04 190.531 24.024 120.386L24 13.273L26.636 10.636C28.086 9.186 30.403 8 31.783 8C33.26 8 53.362 19.124 80.573 35C106.027 49.85 127.369 62 128 62C128.631 62 149.973 49.85 175.427 35C204.917 17.795 222.683 8 224.401 8C226.036 8 228.068 9.049 229.569 10.669L232.042 13.338L231.771 122.919L231.5 232.5L229.047 237.484C226.023 243.631 219.542 250.062 213.25 253.161L208.5 255.5L129.5 255.695C66.24 255.851 49.662 255.626 46.296 254.564M209.188 236.806C216.473 231.249 216.039 238.398 215.755 128.724L215.5 30.271L173 55.113C149.625 68.776 129.421 79.965 128.102 79.977C126.279 79.995 56.038 40.102 42.236 31.21L39.971 29.751L40.236 129.704L40.5 229.656L43.18 233.169C48.675 240.373 43.812 240.001 129.078 239.737L205.657 239.5L209.188 236.806" />
    <glyph glyph-name="bookmark-delete"
      unicode="&#xEA20;"
      horiz-adv-x="256" d="M46.296 254.564C36.652 251.522 27.28 241.553 25.084 232C24.406 229.053 24.04 190.531 24.024 120.386L24 13.273L26.636 10.636C28.086 9.186 30.403 8 31.783 8C33.26 8 53.362 19.124 80.573 35C106.027 49.85 127.369 62 128 62C128.631 62 149.973 49.85 175.427 35C204.917 17.795 222.683 8 224.401 8C226.036 8 228.068 9.049 229.569 10.669L232.042 13.338L231.771 122.919L231.5 232.5L229.047 237.484C226.023 243.631 219.542 250.062 213.25 253.161L208.5 255.5L129.5 255.695C66.24 255.851 49.662 255.626 46.296 254.564M209.188 236.806C216.473 231.249 216.039 238.398 215.755 128.724L215.5 30.271L173 55.113C149.625 68.776 129.421 79.965 128.102 79.977C126.279 79.995 56.038 40.102 42.236 31.21L39.971 29.751L40.236 129.704L40.5 229.656L43.18 233.169C48.675 240.373 43.812 240.001 129.078 239.737L205.657 239.5L209.188 236.806M90.455 165.545C87.266 162.357 87.265 158.085 90.452 154.646L92.905 152L128 152L163.095 152L165.548 154.646C168.735 158.085 168.734 162.357 165.545 165.545L163.091 168L128 168L92.909 168L90.455 165.545" />
    <glyph glyph-name="bookmark-add"
      unicode="&#xEA22;"
      horiz-adv-x="256" d="M46.296 254.564C36.652 251.522 27.28 241.553 25.084 232C24.406 229.053 24.04 190.531 24.024 120.386L24 13.273L26.636 10.636C28.086 9.186 30.403 8 31.783 8C33.26 8 53.362 19.124 80.573 35C106.027 49.85 127.369 62 128 62C128.631 62 149.973 49.85 175.427 35C204.917 17.795 222.683 8 224.401 8C226.036 8 228.068 9.049 229.569 10.669L232.042 13.338L231.771 122.919L231.5 232.5L229.047 237.484C226.023 243.631 219.542 250.062 213.25 253.161L208.5 255.5L129.5 255.695C66.24 255.851 49.662 255.626 46.296 254.564M209.188 236.806C216.473 231.249 216.039 238.398 215.755 128.724L215.5 30.271L173 55.113C149.625 68.776 129.421 79.965 128.102 79.977C126.279 79.995 56.038 40.102 42.236 31.21L39.971 29.751L40.236 129.704L40.5 229.656L43.18 233.169C48.675 240.373 43.812 240.001 129.078 239.737L205.657 239.5L209.188 236.806M122.455 197.545C120.09 195.181 120 194.594 120 181.545L120 168L106.455 168C93.406 168 92.819 167.91 90.455 165.545C87.266 162.357 87.265 158.085 90.452 154.646C92.872 152.036 93.086 152 106.452 152L120 152L120 138.646C120 125.857 120.104 125.18 122.452 122.646C125.744 119.094 130.256 119.094 133.548 122.646C135.896 125.18 136 125.857 136 138.646L136 152L149.548 152C162.914 152 163.128 152.036 165.548 154.646C168.735 158.085 168.734 162.357 165.545 165.545C163.181 167.91 162.594 168 149.545 168L136 168L136 181.545C136 194.594 135.91 195.181 133.545 197.545C131.998 199.093 129.948 200 128 200C126.052 200 124.002 199.093 122.455 197.545" />
    <glyph glyph-name="pdf"
      unicode="&#xEA23;"
      horiz-adv-x="256" d="M26.455 253.545L24 251.091L24 205.545L24 160L14.455 160C5.653 160 4.718 159.809 2.455 157.545L0 155.091L0 96.191L0 37.292L2.452 34.646C4.774 32.141 5.412 32 14.452 32L24 32L24 18.646C24 5.857 24.104 5.18 26.452 2.646L28.905 0L128 0L227.095 0L229.548 2.646C231.896 5.18 232 5.857 232 18.646L232 32L241.548 32C250.588 32 251.226 32.141 253.548 34.646L256 37.292L256 96.191L256 155.091L253.545 157.545C251.282 159.809 250.347 160 241.545 160L232 160L232 173.734L232 187.468L197.734 221.734L163.468 256L96.188 256L28.909 256L26.455 253.545M152 210.646L152 181.292L154.452 178.646L156.905 176L186.452 176L216 176L216 168L216 160L128 160L40 160L40 200L40 240L96 240L152 240L152 210.646M186.5 210L204.479 192L186.24 192L168 192L168 210C168 219.9 168.117 228 168.26 228C168.404 228 176.611 219.9 186.5 210M240 96L240 48L128 48L16 48L16 96L16 144L128 144L240 144L240 96M72 95.149L72 72L78 72L84 72L84 79.36L84 86.72L89.541 87.292C96.471 88.007 100.992 90.561 103.248 95.034C105.586 99.667 105.493 106.68 103.04 110.701C99.96 115.753 96.178 117.106 83.379 117.737L72 118.297L72 95.149M112.75 117.452C112.338 117.02 112 106.617 112 94.333L112 72L121.557 72C134.431 72 139.296 73.355 144.546 78.405C149.669 83.331 151.36 88.632 150.825 98.089C150.537 103.181 149.833 105.654 147.791 108.739C143.671 114.965 138.303 117.055 124.766 117.7C118.57 117.995 113.162 117.884 112.75 117.452M159.667 117.333C159.3 116.967 159 106.617 159 94.333L159 72L165.5 72L172 72L172 80.5L172 89L178.5 89L185 89L185 94L185 99L178.5 99L172 99L172 103.5L172 108L179 108L186 108L186 113L186 118L173.167 118C166.108 118 160.033 117.7 159.667 117.333M90.926 106.074C94.297 102.703 91.395 97 86.309 97C84.177 97 84 97.421 84 102.5C84 107.7 84.136 108 86.5 108C87.875 108 89.867 107.133 90.926 106.074M135.75 104.426C137.551 102.395 138 100.692 138 95.895C138 86.451 134.615 82 127.435 82L125 82L125 95.128L125 108.256L129.25 107.61C131.977 107.196 134.306 106.055 135.75 104.426M216 24L216 16L128 16L40 16L40 24L40 32L128 32L216 32L216 24" />
    <glyph glyph-name="print"
      unicode="&#xEA24;"
      horiz-adv-x="256" d="M50.455 253.545C48.068 251.159 48 250.677 48 236.191C48 221.762 48.077 221.209 50.452 218.646C53.744 215.094 58.256 215.094 61.548 218.646C63.787 221.063 64 222.103 64 230.646L64 240L128 240L192 240L192 230.646C192 222.103 192.213 221.063 194.452 218.646C197.744 215.094 202.256 215.094 205.548 218.646C207.923 221.209 208 221.762 208 236.191C208 250.677 207.932 251.159 205.545 253.545L203.091 256L128 256L52.909 256L50.455 253.545M2.455 197.545L0 195.091L0 128.191L0 61.292L2.452 58.646L4.905 56L26.452 56L48 56L48 30.646L48 5.292L50.452 2.646L52.905 0L128 0L203.095 0L205.548 2.646L208 5.292L208 30.646L208 56L229.548 56L251.095 56L253.548 58.646L256 61.292L256 128.191L256 195.091L253.545 197.545L251.091 200L128 200L4.909 200L2.455 197.545M240 128L240 72L224 72L208 72L208 101.545L208 131.091L205.545 133.545L203.091 136L128 136L52.909 136L50.455 133.545L48 131.091L48 101.545L48 72L32 72L16 72L16 128L16 184L128 184L240 184L240 128M192 68L192 16L128 16L64 16L64 68L64 120L128 120L192 120L192 68M90.455 93.545C87.266 90.357 87.265 86.085 90.452 82.646L92.905 80L128 80L163.095 80L165.548 82.646C168.735 86.085 168.734 90.357 165.545 93.545L163.091 96L128 96L92.909 96L90.455 93.545M90.455 53.545C87.266 50.357 87.265 46.085 90.452 42.646L92.905 40L128 40L163.095 40L165.548 42.646C168.735 46.085 168.734 50.357 165.545 53.545L163.091 56L128 56L92.909 56L90.455 53.545" />
    <glyph glyph-name="list-bullet-2"
      unicode="&#xEA25;"
      horiz-adv-x="256" d="M24.734 238.97C15.404 236.627 7.095 229.89 2.812 221.193C0.946 217.404 0.5 214.862 0.5 208C0.5 197.879 2.692 192.466 9.579 185.579C20.752 174.406 37.733 172.939 50.421 182.051C71.042 196.86 67.331 227.659 43.744 237.47C38.969 239.456 29.609 240.195 24.734 238.97M38.655 222.359C48.696 217.595 50.921 205.206 43.194 197.084C36.718 190.276 27.282 190.276 20.806 197.084C8.598 209.916 22.724 229.919 38.655 222.359M90.455 213.545C87.266 210.357 87.265 206.085 90.452 202.646L92.905 200L172 200L251.095 200L253.548 202.646C256.735 206.085 256.734 210.357 253.545 213.545L251.091 216L172 216L92.909 216L90.455 213.545M24.734 158.97C15.404 156.627 7.095 149.89 2.812 141.193C0.946 137.404 0.5 134.862 0.5 128C0.5 117.879 2.692 112.466 9.579 105.579C20.752 94.406 37.733 92.939 50.421 102.051C71.042 116.86 67.331 147.659 43.744 157.47C38.969 159.456 29.609 160.195 24.734 158.97M38.655 142.359C48.696 137.595 50.921 125.206 43.194 117.084C39.075 112.753 34.43 111.321 28.259 112.479C23.492 113.373 17.351 119.614 16.435 124.493C13.956 137.707 26.761 148.003 38.655 142.359M90.455 133.545C87.266 130.357 87.265 126.085 90.452 122.646L92.905 120L172 120L251.095 120L253.548 122.646C256.735 126.085 256.734 130.357 253.545 133.545L251.091 136L172 136L92.909 136L90.455 133.545M24.734 78.97C15.404 76.627 7.095 69.89 2.812 61.193C0.946 57.404 0.5 54.862 0.5 48C0.5 37.879 2.692 32.466 9.579 25.579C20.752 14.406 37.733 12.939 50.421 22.051C71.042 36.86 67.331 67.659 43.744 77.47C38.969 79.456 29.609 80.195 24.734 78.97M38.655 62.359C48.696 57.595 50.921 45.206 43.194 37.084C39.075 32.753 34.43 31.321 28.259 32.479C23.492 33.373 17.351 39.614 16.435 44.493C13.956 57.707 26.761 68.003 38.655 62.359M90.455 53.545C87.266 50.357 87.265 46.085 90.452 42.646L92.905 40L172 40L251.095 40L253.548 42.646C256.735 46.085 256.734 50.357 253.545 53.545L251.091 56L172 56L92.909 56L90.455 53.545" />
    <glyph glyph-name="magnifier"
      unicode="&#xEA26;"
      horiz-adv-x="256" d="M87.5 246.391C77.913 244.677 74.679 243.701 65.5 239.751C44.222 230.593 25.063 211.463 16.124 190.449C10.442 177.092 8.614 167.925 8.554 152.5C8.485 134.576 10.707 124.694 18.224 109.5C30.882 83.913 53.474 65.854 81.664 58.789C88.775 57.007 93.234 56.586 104.5 56.632C120.59 56.699 132.171 59.181 144.5 65.203L151.5 68.622L182.037 38.311C210.24 10.318 212.838 8 216.026 8C219.137 8 220.879 9.411 233.738 22.349C246.417 35.105 248 37.071 248 40.061C248 43.136 245.388 46.05 217.615 73.963L187.231 104.5L191.101 112.5C197.419 125.561 199.413 135.036 199.412 152C199.411 167.919 197.678 176.809 191.953 190.268C181.509 214.819 158.138 235.708 132 243.854C119.203 247.842 101.323 248.861 87.5 246.391M126.5 228.536C155.546 219.979 176.795 196.35 182.591 166.162C190.295 126.042 164.39 85.564 123.831 74.345C119.243 73.077 113.783 72.594 104 72.594C85.35 72.594 74.762 75.687 60.15 85.4C36.133 101.367 22.729 128.026 24.316 156.672C25.528 178.563 35.741 198.62 53.383 213.757C72.477 230.14 101.288 235.963 126.5 228.536M203.499 65.001L228.483 40.003L222.237 33.757L215.992 27.512L190.763 52.742L165.534 77.971L171.486 83.986C174.759 87.293 177.68 90 177.976 90C178.273 90 189.758 78.751 203.499 65.001" />
    <glyph glyph-name="b-chat"
      unicode="&#xEA27;"
      horiz-adv-x="256" d="M16.008 246.684C10.952 245.074 2.438 236.401 1.102 231.5C-0.514 225.576 -0.41 118.121 1.216 112.616C2.839 107.123 11.123 98.839 16.616 97.216C18.88 96.547 25.067 96 30.366 96L40 96L40 70.646L40 45.292L42.452 42.646C45.965 38.856 49.665 39.177 55.07 43.74C57.507 45.797 71.971 58.397 87.214 71.74L114.927 96L151.098 96C175.655 96 188.512 96.373 191.142 97.161C196.628 98.804 202.873 104.531 205.626 110.444L207.98 115.5L207.985 171.5C207.987 208.84 207.625 228.833 206.898 231.5C205.463 236.762 196.998 245.095 191.384 246.771C185.801 248.438 21.259 248.356 16.008 246.684M189.545 229.545L192 227.091L192 172.191L192 117.292L189.548 114.646L187.095 112L148.178 112L109.26 112L98.38 102.617C92.396 97.456 80.525 87.125 72 79.66L56.5 66.087L56 87.134C55.366 113.818 56.84 112 35.841 112C20.973 112 20.893 112.012 18.452 114.646L16 117.292L16 172.191L16 227.091L18.455 229.545L20.909 232L104 232L187.091 232L189.545 229.545M226.455 189.545C224.977 188.068 224 185.937 224 184.191C224 180.155 228.057 176 231.998 176C233.949 176 235.997 175.093 237.545 173.545L240 171.091L240 124.191L240 77.292L237.548 74.646C235.184 72.095 234.701 72 224.159 72C208.457 72 208.642 72.206 208 54.02L207.5 39.856L185.002 55.928L162.503 72L135.706 72L108.909 72L106.455 69.545C103.266 66.357 103.265 62.085 106.452 58.646L108.905 56L133.214 56L157.523 56L184.92 36.411C202.757 23.658 213.461 16.637 215.595 16.291C218.273 15.856 219.341 16.265 221.436 18.526C223.983 21.274 224 21.406 224 38.646L224 56L229.634 56C232.733 56 237.011 56.522 239.142 57.161C244.628 58.804 250.873 64.531 253.626 70.444L255.98 75.5L255.99 123.572C256.001 178.823 256.105 178.023 248.012 185.299C240.353 192.186 230.947 194.038 226.455 189.545" />
    <glyph glyph-name="filter-tool"
      unicode="&#xEA28;"
      horiz-adv-x="256" d="M12.315 246.993C9.721 245.948 8 243.051 8 239.731C8 238.142 22.864 217.077 51.972 177.416L95.944 117.5L95.972 65.396L96 13.292L98.452 10.646L100.905 8L128 8L155.095 8L157.548 10.646L160 13.292L160.027 65.396L160.054 117.5L203.603 176.83C234.36 218.733 247.311 237.143 247.695 239.507C248.131 242.197 247.733 243.358 245.664 245.427L243.091 248L128.795 247.937C65.461 247.901 13.526 247.481 12.315 246.993M221.791 228.75C220.445 226.962 202.504 202.55 181.922 174.5L144.5 123.5L144.223 73.75L143.946 24L128 24L112.054 24L111.777 73.75L111.5 123.5L74.078 174.5C53.496 202.55 35.555 226.962 34.209 228.75L31.763 232L128 232L224.237 232L221.791 228.75" />
    <glyph glyph-name="grid-interface"
      unicode="&#xEA29;"
      horiz-adv-x="256" d="M10.455 245.545L8 243.091L8 196.191L8 149.292L10.452 146.646L12.905 144L60 144L107.095 144L109.548 146.646L112 149.292L112 196.191L112 243.091L109.545 245.545L107.091 248L60 248L12.909 248L10.455 245.545M146.455 245.545L144 243.091L144 196.191L144 149.292L146.452 146.646L148.905 144L196 144L243.095 144L245.548 146.646L248 149.292L248 196.191L248 243.091L245.545 245.545L243.091 248L196 248L148.909 248L146.455 245.545M96 196L96 160L60 160L24 160L24 196L24 232L60 232L96 232L96 196M232 196L232 160L196 160L160 160L160 196L160 232L196 232L232 232L232 196M10.455 109.545L8 107.091L8 60.191L8 13.292L10.452 10.646L12.905 8L60 8L107.095 8L109.548 10.646L112 13.292L112 60.191L112 107.091L109.545 109.545L107.091 112L60 112L12.909 112L10.455 109.545M146.455 109.545L144 107.091L144 60.191L144 13.292L146.452 10.646L148.905 8L196 8L243.095 8L245.548 10.646L248 13.292L248 60.191L248 107.091L245.545 109.545L243.091 112L196 112L148.909 112L146.455 109.545M96 60L96 24L60 24L24 24L24 60L24 96L60 96L96 96L96 60M232 60L232 24L196 24L160 24L160 60L160 96L196 96L232 96L232 60" />
    <glyph glyph-name="lock"
      unicode="&#xEA2A;"
      horiz-adv-x="256" d="M114.645 254.416C95.099 249.684 77.602 231.771 73.467 212.257C72.52 207.79 72.029 199.145 72.017 186.75L72 168L57.25 167.988C35.994 167.971 27.958 165.319 21.67 156.246C16.152 148.283 16.024 146.642 16.024 84C16.024 21.623 16.171 19.689 21.518 11.974C25.005 6.943 30.558 3.202 37.144 1.449C45.092 -0.666 210.908 -0.666 218.856 1.449C225.442 3.202 230.995 6.943 234.482 11.974C239.829 19.689 239.976 21.623 239.976 84C239.976 146.642 239.848 148.283 234.33 156.246C228.042 165.319 220.006 167.971 198.75 167.988L184 168L183.983 186.75C183.962 208.611 182.761 215.857 177.492 225.883C165.704 248.316 139.184 260.356 114.645 254.416M136.201 238.876C148.411 236.285 158.767 227.943 164.302 216.241L167.49 209.5L167.846 188.75L168.202 168L128 168L87.798 168L88.154 188.75L88.51 209.5L91.616 216C97.303 227.906 106.59 235.718 118.5 238.614C124.99 240.192 129.669 240.261 136.201 238.876M215.906 150.694C217.78 150.037 220.255 148.23 221.406 146.677C223.476 143.885 223.5 143.18 223.5 84C223.5 24.82 223.476 24.115 221.406 21.323C220.255 19.77 217.78 17.963 215.906 17.306C211.016 15.593 44.984 15.593 40.094 17.306C38.22 17.963 35.745 19.77 34.594 21.323C32.524 24.115 32.5 24.82 32.5 84C32.5 143.18 32.524 143.885 34.594 146.677C35.745 148.23 38.22 150.037 40.094 150.694C44.984 152.407 211.016 152.407 215.906 150.694M120.734 126.97C111.404 124.627 103.095 117.89 98.812 109.193C95.486 102.441 95.504 89.522 98.849 82.73C101.938 76.457 108.902 69.603 115.054 66.781L120 64.512L120 54.892C120 45.832 120.153 45.119 122.636 42.636C126.04 39.232 129.947 39.22 133.33 42.603C135.74 45.013 135.953 45.949 136.216 55.283C136.498 65.287 136.52 65.365 139.196 66.079C143.354 67.188 150.466 72.728 153.939 77.564C166.003 94.364 159.182 117.385 139.744 125.47C134.969 127.456 125.609 128.195 120.734 126.97M134.655 110.359C144.696 105.595 146.921 93.206 139.194 85.084C135.075 80.753 130.43 79.321 124.259 80.479C119.492 81.373 113.351 87.614 112.435 92.493C109.956 105.707 122.761 116.003 134.655 110.359" />
    <glyph glyph-name="unlocked"
      unicode="&#xEA2B;"
      horiz-adv-x="256" d="M114.645 254.416C95.099 249.684 77.602 231.771 73.467 212.257C72.52 207.79 72.029 199.145 72.017 186.75L72 168L57.25 167.988C35.994 167.971 27.958 165.319 21.67 156.246C16.152 148.283 16.024 146.642 16.024 84C16.024 21.623 16.171 19.689 21.518 11.974C25.005 6.943 30.558 3.202 37.144 1.449C45.092 -0.666 210.908 -0.666 218.856 1.449C229.033 4.158 235.842 10.967 238.551 21.144C240.647 29.021 240.647 138.979 238.551 146.856C236.797 153.443 232.719 159.496 227.873 162.702C220.083 167.858 218.37 167.975 150.649 167.988L87.798 168L88.154 188.75L88.51 209.5L91.616 216C97.737 228.815 107.744 236.613 121.261 239.104C143.624 243.225 165.332 226.703 167.584 203.849C168.091 198.698 168.829 196.397 170.581 194.507C175.748 188.932 184.017 193.182 183.983 201.396C183.882 225.266 164.74 248.842 140.897 254.463C133.031 256.317 122.419 256.298 114.645 254.416M215.906 150.694C217.78 150.037 220.255 148.23 221.406 146.677C223.476 143.885 223.5 143.18 223.5 84C223.5 24.82 223.476 24.115 221.406 21.323C220.255 19.77 217.78 17.963 215.906 17.306C211.016 15.593 44.984 15.593 40.094 17.306C38.22 17.963 35.745 19.77 34.594 21.323C32.524 24.115 32.5 24.82 32.5 84C32.5 143.18 32.524 143.885 34.594 146.677C35.745 148.23 38.22 150.037 40.094 150.694C44.984 152.407 211.016 152.407 215.906 150.694M120.734 126.97C111.404 124.627 103.095 117.89 98.812 109.193C95.486 102.441 95.504 89.522 98.849 82.73C101.938 76.457 108.902 69.603 115.054 66.781L120 64.512L120 54.892C120 45.832 120.153 45.119 122.636 42.636C126.04 39.232 129.947 39.22 133.33 42.603C135.74 45.013 135.953 45.949 136.216 55.283C136.498 65.287 136.52 65.365 139.196 66.079C143.354 67.188 150.466 72.728 153.939 77.564C166.003 94.364 159.182 117.385 139.744 125.47C134.969 127.456 125.609 128.195 120.734 126.97M134.655 110.359C144.696 105.595 146.921 93.206 139.194 85.084C135.075 80.753 130.43 79.321 124.259 80.479C119.492 81.373 113.351 87.614 112.435 92.493C109.956 105.707 122.761 116.003 134.655 110.359" />
    <glyph glyph-name="menu-7"
      unicode="&#xEA2C;"
      horiz-adv-x="256" d="M10.455 205.545C7.266 202.357 7.265 198.085 10.452 194.646L12.905 192L128 192L243.095 192L245.548 194.646C248.735 198.085 248.734 202.357 245.545 205.545L243.091 208L128 208L12.909 208L10.455 205.545M10.455 133.545C7.266 130.357 7.265 126.085 10.452 122.646L12.905 120L84 120L155.095 120L157.548 122.646C160.735 126.085 160.734 130.357 157.545 133.545L155.091 136L84 136L12.909 136L10.455 133.545M10.455 61.545C7.266 58.357 7.265 54.085 10.452 50.646L12.905 48L128 48L243.095 48L245.548 50.646C248.735 54.085 248.734 58.357 245.545 61.545L243.091 64L128 64L12.909 64L10.455 61.545" />
    <glyph glyph-name="network-connection"
      unicode="&#xEA2D;"
      horiz-adv-x="256" d="M189 254.638C180.207 252.727 174 249.135 166.42 241.568C153.514 228.683 149.934 215.565 153.574 194.5L154.093 191.5L123.871 174.805L93.649 158.109L87.967 163.37C80.894 169.919 73.026 173.712 63.418 175.205C54.114 176.652 43.392 175.181 35.2 171.335C27.68 167.804 16.215 156.38 12.785 149C6.466 135.402 6.483 120.62 12.832 107C16.251 99.667 27.73 88.163 35 84.785C53.267 76.296 73.536 79.269 87.868 92.539L93.649 97.891L123.871 81.195L154.093 64.5L153.574 61.5C149.946 40.506 153.534 27.385 166.448 14.42C176.273 4.557 186.876 0 200 0C213.124 0 223.727 4.557 233.552 14.42C245.864 26.781 250.377 41.6 246.885 58.201C244.968 67.319 241.16 74.001 233.58 81.552C225.262 89.837 218.182 93.532 207.418 95.205C192.681 97.496 178.817 93.354 168.14 83.469L162.367 78.124L132.128 94.812L101.888 111.5L102.693 116C103.726 121.78 103.726 134.22 102.693 140L101.888 144.5L132.128 161.188L162.367 177.876L168.14 172.531C182.464 159.269 202.738 156.298 221 164.785C228.27 168.163 239.749 179.667 243.168 187C249.517 200.62 249.534 215.402 243.215 229C239.809 236.329 228.337 247.746 220.881 251.227C211.052 255.816 199.91 257.008 189 254.638M213.375 237.061C219.366 234.16 226.168 227.341 229.126 221.27C232.587 214.168 232.466 202.561 228.852 194.852C225.624 187.966 219.378 181.525 213.149 178.659C206.581 175.636 193.419 175.636 186.851 178.659C173.718 184.702 165.838 200.692 168.917 215.05C171.128 225.359 180.143 235.294 190.296 238.612C196.404 240.608 207.601 239.856 213.375 237.061M69.375 157.061C75.351 154.168 81.825 147.672 84.969 141.414C88.588 134.208 88.538 122.714 84.852 114.852C81.624 107.966 75.378 101.525 69.149 98.659C62.581 95.636 49.419 95.636 42.851 98.659C29.718 104.702 21.838 120.692 24.917 135.05C27.128 145.359 36.143 155.294 46.296 158.612C52.404 160.608 63.601 159.856 69.375 157.061M213.375 77.061C219.366 74.16 226.168 67.341 229.126 61.27C232.587 54.168 232.466 42.561 228.852 34.852C225.624 27.966 219.378 21.525 213.149 18.659C206.581 15.636 193.419 15.636 186.851 18.659C173.831 24.65 165.839 40.696 168.86 54.781C171.099 65.224 180.163 75.301 190.296 78.612C196.404 80.608 207.601 79.856 213.375 77.061" />
    <glyph glyph-name="e-add"
      unicode="&#xEA2E;"
      horiz-adv-x="256" d="M122.455 245.545L120 243.091L120 189.545L120 136L66.455 136L12.909 136L10.455 133.545C7.266 130.357 7.265 126.085 10.452 122.646L12.905 120L66.452 120L120 120L120 66.646L120 13.292L122.452 10.646C125.744 7.094 130.256 7.094 133.548 10.646L136 13.292L136 66.646L136 120L189.548 120L243.095 120L245.548 122.646C248.735 126.085 248.734 130.357 245.545 133.545L243.091 136L189.545 136L136 136L136 189.545L136 243.091L133.545 245.545C131.998 247.093 129.948 248 128 248C126.052 248 124.002 247.093 122.455 245.545" />
    <glyph glyph-name="data-upload"
      unicode="&#xEA2F;"
      horiz-adv-x="256" d="M90.266 213.734C60.041 183.509 56 179.103 56 176.38C56 172.063 59.956 168 64.159 168C67.08 168 70.104 170.684 93.707 194.225L120 220.45L120 140.871L120 61.292L122.452 58.646C125.744 55.094 130.256 55.094 133.548 58.646L136 61.292L136 140.871L136 220.45L162.293 194.225C185.896 170.684 188.92 168 191.841 168C196.044 168 200 172.063 200 176.38C200 179.103 195.959 183.509 165.734 213.734C133.888 245.58 131.223 248 128 248C124.777 248 122.112 245.58 90.266 213.734M10.455 77.545L8 75.091L8 44.191L8 13.292L10.452 10.646L12.905 8L128 8L243.095 8L245.548 10.646L248 13.292L248 44.191L248 75.091L245.545 77.545C242.298 80.793 237.702 80.793 234.455 77.545L232 75.091L232 49.545L232 24L128 24L24 24L24 49.545L24 75.091L21.545 77.545C19.998 79.093 17.948 80 16 80C14.052 80 12.002 79.093 10.455 77.545" />
    <glyph glyph-name="upload"
      unicode="&#xEA30;"
      horiz-adv-x="256" d="M98.271 221.729C75.272 198.729 72 195.074 72 192.375C72 188.072 75.959 184 80.141 184C83.001 184 85.508 186.119 101.689 202.215L120 220.429L120 152.861L120 85.292L122.452 82.646C125.744 79.094 130.256 79.094 133.548 82.646L136 85.292L136 152.861L136 220.429L154.311 202.215C170.492 186.119 172.999 184 175.859 184C180.041 184 184 188.072 184 192.375C184 195.074 180.728 198.729 157.729 221.729C133.497 245.961 131.19 248 128 248C124.81 248 122.503 245.961 98.271 221.729M26.455 149.545L24 147.091L24 76.191L24 5.292L26.452 2.646L28.905 0L128 0L227.095 0L229.548 2.646L232 5.292L232 76.191L232 147.091L229.545 149.545L227.091 152L196 152L164.909 152L162.455 149.545C159.266 146.357 159.265 142.085 162.452 138.646L164.905 136L190.452 136L216 136L216 76L216 16L128 16L40 16L40 76L40 136L65.548 136L91.095 136L93.548 138.646C96.735 142.085 96.734 146.357 93.545 149.545L91.091 152L60 152L28.909 152L26.455 149.545" />
    <glyph glyph-name="flag"
      unicode="&#xEA31;"
      horiz-adv-x="256" d="M26.455 253.545L24 251.091L24 128.191L24 5.292L26.452 2.646C29.744 -0.906 34.256 -0.906 37.548 2.646L40 5.292L40 46.646L40 88L133.548 88L227.095 88L229.548 90.646L232 93.292L232 160.191L232 227.091L229.545 229.545L227.091 232L133.545 232L40 232L40 241.545C40 250.347 39.809 251.282 37.545 253.545C35.998 255.093 33.948 256 32 256C30.052 256 28.002 255.093 26.455 253.545M216 160L216 104L128 104L40 104L40 160L40 216L128 216L216 216L216 160" />
    <glyph glyph-name="globe"
      unicode="&#xEA32;"
      horiz-adv-x="256" d="M108.5 254.445C52.322 244.952 9.966 202.042 1.455 146C-4.64 105.87 9.865 64.393 40.107 35.475C78.003 -0.763 133.896 -10.049 181.562 11.972C232.425 35.471 262.847 91.338 254.545 146C248.032 188.887 221.552 224.782 182.654 243.451C160.109 254.272 132.075 258.428 108.5 254.445M120 219.5L120 200L100.983 200L81.966 200L84.618 205.25C88.602 213.14 92.667 218.864 98.888 225.349C105.881 232.637 112.338 236.841 119.75 238.93C119.888 238.968 120 230.225 120 219.5M146 234.659C154.256 230 165.38 217.11 171.378 205.25L174.034 200L155.017 200L136 200L136 219.448L136 238.896L139.25 237.765C141.037 237.143 144.075 235.745 146 234.659M75.603 221.602C73.177 217.908 69.686 211.537 67.846 207.444L64.5 200.002L53.715 200.001C43.43 200 42.977 200.088 43.946 201.899C45.334 204.492 56.191 214.267 63.5 219.504C69.757 223.988 79.069 229.264 79.668 228.666C79.859 228.475 78.029 225.296 75.603 221.602M187.891 222.639C196.01 217.387 208.017 207.189 210.978 203.03L213.136 200L202.318 200.001L191.5 200.002L188.154 207.444C186.314 211.537 182.826 217.903 180.404 221.591C177.982 225.279 176 228.444 176 228.624C176 229.49 181.857 226.542 187.891 222.639M56.872 176.25C54.496 166.307 52 148.49 52 141.466L52 136L34.063 136L16.126 136L16.64 139.75C18.513 153.417 22.52 167.087 27.631 177.25L31.025 184L44.875 184L58.725 184L56.872 176.25M120 160L120 136L94 136L68 136L68 141.507C68 148.61 70.456 164.901 73.139 175.6L75.246 184L97.623 184L120 184L120 160M182.921 175.36C185.507 165.049 187.956 148.542 187.982 141.25L188 136L162 136L136 136L136 160L136 184L158.377 184L180.754 184L182.921 175.36M228.369 177.25C233.48 167.087 237.487 153.417 239.36 139.75L239.874 136L221.937 136L204 136L204 141.466C204 148.49 201.504 166.307 199.128 176.25L197.275 184L211.125 184L224.975 184L228.369 177.25M52 114.534C52 107.51 54.496 89.693 56.872 79.75L58.725 72L44.875 72L31.025 72L27.631 78.75C23.356 87.251 19.417 99.666 17.491 110.71C16.671 115.414 16 119.428 16 119.631C16 119.834 24.1 120 34 120L52 120L52 114.534M120 96L120 72L97.623 72L75.246 72L73.079 80.64C70.493 90.951 68.044 107.458 68.018 114.75L68 120L94 120L120 120L120 96M187.982 114.75C187.955 107.244 185.412 90.352 182.819 80.467L180.599 72L158.299 72L136 72L136 96L136 120L162 120L188 120L187.982 114.75M239.36 116.25C237.487 102.583 233.48 88.913 228.369 78.75L224.975 72L211.125 72L197.275 72L199.128 79.75C201.504 89.693 204 107.51 204 114.534L204 120L221.937 120L239.874 120L239.36 116.25M67.768 48.729C69.566 44.731 73.053 38.389 75.518 34.637C77.983 30.884 80 27.59 80 27.315C80 26.439 67.057 33.895 61.674 37.872C54.891 42.883 45.194 51.768 43.929 54.133C42.982 55.902 43.496 56 53.715 55.999L64.5 55.998L67.768 48.729M120 36.433L120 16.865L117.75 17.544C106.759 20.862 92.785 34.775 84.901 50.25L81.971 56L100.986 56L120 56L120 36.433M171.382 50.75C163.552 35.246 149.183 20.845 138.25 17.544L136 16.865L136 36.433L136 56L155.017 56L174.034 56L171.382 50.75M211.118 53.166C208.429 49.389 197.934 40.283 190.5 35.276C184.43 31.188 176 26.601 176 27.387C176 27.622 178.017 30.884 180.482 34.637C182.947 38.389 186.434 44.731 188.232 48.729L191.5 55.998L202.318 55.999L213.136 56L211.118 53.166" />
    <glyph glyph-name="single-01"
      unicode="&#xEA33;"
      horiz-adv-x="256" d="M114.5 254.567C105.017 252.344 100.29 250.347 92.932 245.455C79.327 236.41 68.741 220.991 65.499 205.5C63.557 196.216 63.557 171.784 65.499 162.5C71.523 133.713 98.37 112.035 128 112.035C157.63 112.035 184.477 133.713 190.501 162.5C192.443 171.784 192.443 196.216 190.501 205.5C185.973 227.14 168.501 246.356 147.282 253.034C138.535 255.787 122.832 256.521 114.5 254.567M137.447 238.925C146.818 237.193 153.765 233.339 161.552 225.552C173.01 214.093 176 205.495 176 184C176 162.52 173.015 153.928 161.552 142.42C151.727 132.557 141.124 128 128 128C114.876 128 104.273 132.557 94.448 142.42C82.985 153.928 80 162.52 80 184C80 205.616 82.948 214.115 94.42 225.568C106.643 237.769 120.473 242.063 137.447 238.925M107.5 95.413C105.3 95.196 98.588 94.542 92.584 93.96C71.769 91.942 40.388 84.316 29.151 78.544C20.26 73.978 13.085 65.112 9.823 54.661C8.294 49.763 8 45.314 8 27.057C8 5.34 8.005 5.286 10.452 2.646L12.905 0L128 0L243.095 0L245.548 2.646C247.995 5.286 248 5.34 248 27.057C248 45.314 247.706 49.763 246.177 54.661C242.915 65.112 235.74 73.978 226.849 78.544C216.312 83.956 186.129 91.483 165 93.968C155.304 95.108 114.737 96.127 107.5 95.413M166.5 77.576C188.365 74.718 215.272 67.463 221.759 62.678C230.317 56.364 232 51.219 232 31.374L232 16L128 16L24 16L24 31.374C24 57.073 27.248 61.937 49 68.82C61.662 72.827 80.007 76.581 93.5 77.928C99.55 78.532 106.3 79.203 108.5 79.419C116.608 80.216 155.839 78.97 166.5 77.576" />
    <glyph glyph-name="multiple-19"
      unicode="&#xEA34;"
      horiz-adv-x="256" d="M70.259 229.992C49.022 224.427 33.82 205.807 32.338 183.543C31.167 165.953 37.849 149.093 51.39 135.473C60.611 126.198 67.169 122.493 77.356 120.805C92.038 118.372 104.084 122.874 116.61 135.473C126.072 144.991 132.043 155.775 134.618 168C142.858 207.118 108.662 240.056 70.259 229.992M177.5 222.589C155.365 217.095 141.308 195.393 144.832 172.152C147.317 155.762 159.356 138.396 172.833 131.762C178.745 128.851 180.377 128.5 188 128.5C195.623 128.5 197.255 128.851 203.167 131.762C221.499 140.786 234.569 166.279 231.222 186.48C226.975 212.111 202.247 228.731 177.5 222.589M98.79 212.505C110.029 207.379 118.454 195.695 119.714 183.486C121.377 167.371 110.943 147.522 96.853 139.995C84.853 133.583 72.801 135.933 62.368 146.718C52.715 156.696 47.051 171.512 48.292 183.536C49.804 198.194 61.269 211.323 75.746 214.977C81.94 216.54 92.405 215.418 98.79 212.505M200.73 204.755C210.065 199.903 216 189.668 216 178.419C216 173.637 212.453 163.519 209.036 158.552C201.124 147.052 192.457 142.453 183.33 144.911C171.961 147.972 160.103 165.353 160.026 179.068C159.953 191.885 168.166 203.254 180.139 206.912C185.594 208.579 195.334 207.559 200.73 204.755M168.5 110.516C153.547 108.17 139.459 103.599 132.996 98.997C130.22 97.021 129.826 96.993 124.79 98.419C111.205 102.267 101.552 103.436 83.5 103.421C68.014 103.408 63.821 103.048 53.474 100.843C39.47 97.859 24.808 92.315 17 87.053C10.234 82.493 4.592 74.658 1.977 66.192C0.374 61 0 56.906 0 44.541C0 29.741 0.072 29.214 2.452 26.646L4.905 24L84 24L163.095 24L165.548 26.646C167.928 29.214 168 29.74 168 44.557C168 56.73 167.616 61.055 166.105 65.909C163.611 73.925 158.757 81.33 153.236 85.546L148.765 88.96L151.361 89.947C171.406 97.568 199.769 97.779 222.882 90.478C235.906 86.363 240 81.473 240 70.032L240 64L214.455 64L188.909 64L186.455 61.545C183.266 58.357 183.265 54.085 186.452 50.646L188.905 48L220 48L251.095 48L253.636 50.742C256.145 53.449 256.173 53.66 255.839 67.492C255.526 80.422 255.286 81.936 252.72 87.161C247.882 97.012 240.757 102.051 225.347 106.516C207.2 111.775 186.025 113.265 168.5 110.516M102.371 86.496C121.562 83.98 141.311 76.392 146.552 69.52C150.633 64.17 151.908 59.388 151.956 49.25L152 40L84 40L16 40L16.044 49.25C16.115 64.265 19.672 70.795 30.842 76.42C50.222 86.18 76.522 89.885 102.371 86.496" />
    <glyph glyph-name="box"
      unicode="&#xEA35;"
      horiz-adv-x="256" d="M2.455 237.545L0 235.091L0 208.191L0 181.292L2.452 178.646L4.905 176L128 176L251.095 176L253.548 178.646L256 181.292L256 208.191L256 235.091L253.545 237.545L251.091 240L128 240L4.909 240L2.455 237.545M240 208L240 192L128 192L16 192L16 208L16 224L128 224L240 224L240 208M26.455 157.545L24 155.091L24 84.191L24 13.292L26.452 10.646L28.905 8L128 8L227.095 8L229.548 10.646L232 13.292L232 84.191L232 155.091L229.545 157.545C226.298 160.793 221.702 160.793 218.455 157.545L216 155.091L216 89.545L216 24L128 24L40 24L40 89.545L40 155.091L37.545 157.545C35.998 159.093 33.948 160 32 160C30.052 160 28.002 159.093 26.455 157.545M90.455 141.545L88 139.091L88 116.191L88 93.292L90.452 90.646L92.905 88L128 88L163.095 88L165.548 90.646L168 93.292L168 116.191L168 139.091L165.545 141.545L163.091 144L128 144L92.909 144L90.455 141.545M152 116L152 104L128 104L104 104L104 116L104 128L128 128L152 128L152 116" />
    <glyph glyph-name="time"
      unicode="&#xEA37;"
      horiz-adv-x="256" d="M114.605 246.901C57.072 240.835 11.821 192.988 8.302 134.5C7.782 125.856 7.863 125.391 10.333 122.75C13.685 119.166 18.22 119.056 21.396 122.482C23.327 124.565 23.795 126.453 24.311 134.232C25.477 151.807 31.962 171.018 41.717 185.79C43.791 188.931 49.004 195.176 53.303 199.668C75.38 222.741 106.699 234.235 138.638 230.986C163.084 228.499 185.628 217.481 202.718 199.668C242.227 158.486 241.203 94.209 200.391 53.645C177.003 30.4 140.083 19.33 108.048 25.958C90.844 29.517 73.606 37.754 61.555 48.173C61.005 48.648 64.818 53.278 70.674 59.245C76.209 64.885 81.033 70.453 81.394 71.618C82.281 74.478 80.594 78.575 77.795 80.355C75.059 82.096 13.695 96 8.748 96C5.178 96 2.72 94.095 1.623 90.478C0.732 87.538 15.605 22.077 17.864 19C19.139 17.263 20.838 16.404 23.432 16.185C26.978 15.885 27.715 16.41 38.042 26.586L48.917 37.303L54.307 33.233C96.352 1.489 151.175 -0.356 194.56 28.511C256.404 69.661 265.874 157.831 214.135 210.756C193.391 231.975 169.532 243.549 139.5 246.961C129.415 248.107 125.957 248.099 114.605 246.901M122.455 205.545L120 203.091L120 164.191L120 125.292L122.452 122.646L124.905 120L164 120L203.095 120L205.548 122.646C208.735 126.085 208.734 130.357 205.545 133.545L203.091 136L169.545 136L136 136L136 169.545L136 203.091L133.545 205.545C131.998 207.093 129.948 208 128 208C126.052 208 124.002 207.093 122.455 205.545M39.278 73.402C48.2 71.423 55.829 69.496 56.231 69.121C56.634 68.745 50.523 62.009 42.653 54.152L28.342 39.868L24.595 56.684C22.534 65.933 20.626 74.287 20.356 75.25C19.684 77.645 20.511 77.564 39.278 73.402" />
    <glyph glyph-name="split-37"
      unicode="&#xEA38;"
      horiz-adv-x="256" d="M2.455 253.545L0 251.091L0 216.191L0 181.292L2.452 178.646C5.744 175.094 10.256 175.094 13.548 178.646L16 181.292L16 204.892L16 228.493L68 176.5L120 124.507L120 64.9L120 5.292L122.452 2.646C125.744 -0.906 130.256 -0.906 133.548 2.646L136 5.292L136 68.375L136 131.457L81.762 185.729L27.525 240L51.31 240L75.095 240L77.548 242.646C80.735 246.085 80.734 250.357 77.545 253.545L75.091 256L40 256L4.909 256L2.455 253.545M178.455 253.545C175.266 250.357 175.265 246.085 178.452 242.646L180.905 240L204.686 240L228.468 240L186.234 197.723C148.901 160.352 144 155.088 144 152.369C144 148.055 147.961 144 152.175 144C155.15 144 159.266 147.816 197.723 186.234L240 228.468L240 204.88L240 181.292L242.452 178.646C245.744 175.094 250.256 175.094 253.548 178.646L256 181.292L256 216.191L256 251.091L253.545 253.545L251.091 256L216 256L180.909 256L178.455 253.545" />
    <glyph glyph-name="sort-tool"
      unicode="&#xEA39;"
      horiz-adv-x="256" d="M2.455 229.545C-0.734 226.357 -0.735 222.085 2.452 218.646L4.905 216L128 216L251.095 216L253.548 218.646C256.735 222.085 256.734 226.357 253.545 229.545L251.091 232L128 232L4.909 232L2.455 229.545M34.455 165.545C31.266 162.357 31.265 158.085 34.452 154.646L36.905 152L128 152L219.095 152L221.548 154.646C224.735 158.085 224.734 162.357 221.545 165.545L219.091 168L128 168L36.909 168L34.455 165.545M66.455 101.545C63.266 98.357 63.265 94.085 66.452 90.646L68.905 88L128 88L187.095 88L189.548 90.646C192.735 94.085 192.734 98.357 189.545 101.545L187.091 104L128 104L68.909 104L66.455 101.545M98.455 37.545C95.266 34.357 95.265 30.085 98.452 26.646L100.905 24L128 24L155.095 24L157.548 26.646C160.735 30.085 160.734 34.357 157.545 37.545L155.091 40L128 40L100.909 40L98.455 37.545" />
    <glyph glyph-name="button-2"
      unicode="&#xEA3A;"
      horiz-adv-x="256" d="M2.455 253.545L0 251.091L0 180.191L0 109.292L2.452 106.646L4.905 104L40.875 104L76.846 104L86.673 74.399C96.622 44.43 98.736 40 103.089 40C108.59 40 109.788 41.725 124.146 70.327L138.179 98.281L171.374 65.14C201.392 35.172 204.881 32 207.832 32C212.035 32 216 36.059 216 40.361C216 43.058 211.971 47.466 182.849 76.636L149.698 109.842L176.782 123.391C191.679 130.843 204.797 137.939 205.933 139.159C209.94 143.459 207.84 148.981 201.12 151.812C192.758 155.334 57.468 200 55.16 200C52.383 200 48 195.463 48 192.588C48 191.422 53.175 174.957 59.5 156C65.825 137.043 71 121.188 71 120.766C71 120.345 58.625 120 43.5 120L16 120L16 180L16 240L128 240L240 240L240 180L240 120L222.455 120C205.159 120 204.874 119.965 202.455 117.545C199.266 114.357 199.265 110.085 202.452 106.646L204.905 104L228 104L251.095 104L253.548 106.646L256 109.292L256 180.191L256 251.091L253.545 253.545L251.091 256L128 256L4.909 256L2.455 253.545M125.254 160.401L179.007 142.512L154.506 130.253L130.005 117.995L117.747 93.494L105.488 68.993L87.599 122.746C77.759 152.311 69.471 177.141 69.181 177.924C68.838 178.849 69.151 179.162 70.076 178.819C70.859 178.529 95.689 170.241 125.254 160.401" />
    <glyph glyph-name="menu-6"
      unicode="&#xEA40;"
      horiz-adv-x="256" d="M10.455 229.545C8.022 227.113 8 226.924 8 208.191C8 189.516 8.029 189.261 10.452 186.646L12.905 184L128 184L243.095 184L245.548 186.646C247.971 189.261 248 189.516 248 208.191C248 226.924 247.978 227.113 245.545 229.545L243.091 232L128 232L12.909 232L10.455 229.545M232 208L232 200L128 200L24 200L24 208L24 216L128 216L232 216L232 208M10.455 149.545C8.022 147.113 8 146.924 8 128.191C8 109.516 8.029 109.261 10.452 106.646L12.905 104L128 104L243.095 104L245.548 106.646C247.971 109.261 248 109.516 248 128.191C248 146.924 247.978 147.113 245.545 149.545L243.091 152L128 152L12.909 152L10.455 149.545M232 128L232 120L128 120L24 120L24 128L24 136L128 136L232 136L232 128M10.455 69.545C8.022 67.113 8 66.924 8 48.191C8 29.516 8.029 29.261 10.452 26.646L12.905 24L128 24L243.095 24L245.548 26.646C247.971 29.261 248 29.516 248 48.191C248 66.924 247.978 67.113 245.545 69.545L243.091 72L128 72L12.909 72L10.455 69.545M232 48L232 40L128 40L24 40L24 48L24 56L128 56L232 56L232 48" />
    <glyph glyph-name="pulse"
      unicode="&#xEA41;"
      horiz-adv-x="256" d="M92.186 214.751C90.497 213.938 84.619 203.153 70.422 174.819L50.972 136L27.94 136L4.909 136L2.455 133.545C-0.734 130.357 -0.735 126.085 2.452 122.646L4.905 120L31.518 120C48.127 120 58.866 120.393 60.086 121.046C61.243 121.665 68.804 135.614 78.633 155.266L95.226 188.441L123.875 116.97C139.631 77.662 153.086 44.507 153.774 43.293C155.272 40.648 160.894 39.338 163.882 40.937C165.23 41.658 172.926 55.93 185.502 81.028L205.028 120L228.062 120L251.095 120L253.548 122.646C256.735 126.085 256.734 130.357 253.545 133.545L251.091 136L224.48 136C207.873 136 197.134 135.607 195.914 134.954C194.757 134.335 187.196 120.386 177.367 100.734L160.774 67.559L131.835 140.03C113.844 185.085 102.117 213.162 100.837 214.25C98.516 216.223 95.597 216.392 92.186 214.751" />
    <glyph glyph-name="copy"
      unicode="&#xEA43;"
      horiz-adv-x="256" d="M42.455 253.545C39.266 250.357 39.265 246.085 42.452 242.646L44.905 240L134.452 240L224 240L224 134.646L224 29.292L226.452 26.646C229.744 23.094 234.256 23.094 237.548 26.646L240 29.292L240 140.191L240 251.091L237.545 253.545L235.091 256L140 256L44.909 256L42.455 253.545M18.455 221.545L16 219.091L16 112.191L16 5.292L18.452 2.646L20.905 0L112 0L203.095 0L205.548 2.646L208 5.292L208 112.191L208 219.091L205.545 221.545L203.091 224L112 224L20.909 224L18.455 221.545M192 112L192 16L112 16L32 16L32 112L32 208L112 208L192 208L192 112M58.455 165.545C55.266 162.357 55.265 158.085 58.452 154.646L60.905 152L112 152L163.095 152L165.548 154.646C168.735 158.085 168.734 162.357 165.545 165.545L163.091 168L112 168L60.909 168L58.455 165.545M58.455 117.545C55.266 114.357 55.265 110.085 58.452 106.646L60.905 104L112 104L163.095 104L165.548 106.646C168.735 110.085 168.734 114.357 165.545 117.545L163.091 120L112 120L60.909 120L58.455 117.545M58.455 69.545C55.266 66.357 55.265 62.085 58.452 58.646L60.905 56L80 56L99.095 56L101.548 58.646C104.735 62.085 104.734 66.357 101.545 69.545C99.111 71.98 98.936 72 80 72C61.064 72 60.889 71.98 58.455 69.545" />
    <glyph glyph-name="menu-8"
      unicode="&#xEA48;"
      horiz-adv-x="256" d="M10.455 205.545C7.266 202.357 7.265 198.085 10.452 194.646L12.905 192L128 192L243.095 192L245.548 194.646C248.735 198.085 248.734 202.357 245.545 205.545L243.091 208L128 208L12.909 208L10.455 205.545M10.455 133.545C7.266 130.357 7.265 126.085 10.452 122.646L12.905 120L128 120L243.095 120L245.548 122.646C248.735 126.085 248.734 130.357 245.545 133.545L243.091 136L128 136L12.909 136L10.455 133.545M10.455 61.545C7.266 58.357 7.265 54.085 10.452 50.646L12.905 48L128 48L243.095 48L245.548 50.646C248.735 54.085 248.734 58.357 245.545 61.545L243.091 64L128 64L12.909 64L10.455 61.545" />
    <glyph glyph-name="send"
      unicode="&#xEA49;"
      horiz-adv-x="256" d="M124.113 207.144C34.495 175.02 10.416 166.031 9.249 164.263C8.259 162.762 7.987 160.885 8.422 158.562C9.017 155.391 11.73 153.134 40.536 131.847L72 108.596L72 68.944L72 29.292L74.452 26.646C79.092 21.64 81.14 22.555 99.937 38.035C111.322 47.411 117.191 52.913 117.617 54.609C118.957 59.95 113.6 65.691 108.474 64.404C106.968 64.026 101.745 60.396 96.868 56.336L88 48.955L88 72.478C88 85.415 88.231 96 88.513 96C88.795 96 113.382 78 143.149 56C174.758 32.64 198.163 16 199.414 16C201.93 16 205.592 18.37 206.925 20.86C207.904 22.688 248 237.73 248 241.148C248 244.113 243.541 248.017 240.295 247.894C238.758 247.836 186.476 229.499 124.113 207.144M211.501 130.184C202.425 81.153 195 40.578 195 40.018C195 39.458 194.608 39 194.129 39C193.4 39 97.234 109.572 94.642 112.009C94.17 112.453 123.87 136.892 160.642 166.317C197.414 195.743 227.613 219.709 227.751 219.575C227.888 219.442 220.576 179.216 211.501 130.184M138.956 169.362C85.002 126.19 80.516 122.821 78.585 124.022C72.67 127.702 33.04 157.52 33.714 157.784C38.786 159.769 195.734 215.87 196.371 215.925C196.85 215.966 171.013 195.013 138.956 169.362" />
    <glyph glyph-name="email"
      unicode="&#xEA4A;"
      horiz-adv-x="256" d="M20.678 230.496C10.818 227.786 4.14 220.965 1.449 210.856C-0.662 202.923 -0.662 53.077 1.449 45.144C4.158 34.967 10.967 28.158 21.144 25.449C29.116 23.328 226.884 23.328 234.856 25.449C245.033 28.158 251.842 34.967 254.551 45.144C256.662 53.077 256.662 202.923 254.551 210.856C251.802 221.184 245.184 227.802 234.856 230.551C227.22 232.583 28.088 232.532 20.678 230.496M231.906 214.694C233.78 214.037 236.255 212.23 237.406 210.677C239.49 207.867 239.5 207.478 239.5 128C239.5 48.522 239.49 48.133 237.406 45.323C236.255 43.77 233.78 41.963 231.906 41.306C227.004 39.589 28.996 39.589 24.094 41.306C22.22 41.963 19.745 43.77 18.594 45.323C16.51 48.133 16.5 48.522 16.5 128C16.5 207.478 16.51 207.867 18.594 210.677C19.745 212.23 22.22 214.037 24.094 214.694C28.996 216.411 227.004 216.411 231.906 214.694M36.017 190.714C33.118 189.248 31.459 185.293 32.313 181.89C32.998 179.159 121.586 98.072 125.539 96.557C127.081 95.966 128.919 95.966 130.461 96.557C134.232 98.002 223 179.151 223.652 181.749C224.653 185.738 223.148 188.962 219.464 190.718C216.923 191.93 215.316 192.125 213.521 191.44C212.168 190.923 192.367 173.486 169.521 152.692L127.981 114.883L89.74 149.621C68.708 168.727 49.598 186.078 47.272 188.18C42.834 192.19 40.135 192.798 36.017 190.714M68.341 118.715C67.154 118.047 58.45 107.83 48.999 96.011C32.674 75.595 31.844 74.346 32.378 71.011C33.327 65.074 38.556 62.423 43.669 65.285C46.603 66.928 78.817 107.423 79.567 110.411C79.901 111.742 79.485 114.096 78.618 115.771C76.39 120.08 72.665 121.147 68.341 118.715M179.08 118.25C177.903 117.287 176.686 114.92 176.378 112.989C175.844 109.656 176.681 108.393 192.937 87.989C202.354 76.17 211.057 65.944 212.279 65.265C217.423 62.404 222.671 65.062 223.622 71.011C224.156 74.346 223.326 75.595 207.001 96.011C197.55 107.83 188.846 118.047 187.659 118.715C184.591 120.441 181.56 120.276 179.08 118.25" />
    <glyph glyph-name="download"
      unicode="&#xEA4B;"
      horiz-adv-x="256" d="M122.455 253.545L120 251.091L120 167.331L120 83.571L101.689 101.785C85.513 117.875 83 120 80.143 120C75.809 120 72 116.189 72 111.852C72 108.949 74.732 105.875 98.255 82.306C122.577 57.936 124.766 56 128 56C131.234 56 133.423 57.936 157.745 82.306C181.268 105.875 184 108.949 184 111.852C184 116.189 180.191 120 175.857 120C173 120 170.487 117.875 154.311 101.785L136 83.571L136 167.331L136 251.091L133.545 253.545C131.998 255.093 129.948 256 128 256C126.052 256 124.002 255.093 122.455 253.545M26.455 157.545L24 155.091L24 84.191L24 13.292L26.452 10.646L28.905 8L128 8L227.095 8L229.548 10.646L232 13.292L232 84.191L232 155.091L229.545 157.545L227.091 160L196 160L164.909 160L162.455 157.545C159.266 154.357 159.265 150.085 162.452 146.646L164.905 144L190.452 144L216 144L216 84L216 24L128 24L40 24L40 84L40 144L65.548 144L91.095 144L93.548 146.646C96.735 150.085 96.734 154.357 93.545 157.545L91.091 160L60 160L28.909 160L26.455 157.545" />
    <glyph glyph-name="database"
      unicode="&#xEA4C;"
      horiz-adv-x="256" d="M98.5 254.891C74.423 252.649 50.976 247.017 36.5 240C26.165 234.99 21.306 230.852 18.381 224.571L16.02 219.5L16.01 127.946L16 36.393L18.618 31.14C23.303 21.737 35.041 14.77 56.5 8.652C95.969 -2.599 160.031 -2.599 199.5 8.652C220.959 14.77 232.697 21.737 237.382 31.14L240 36.393L239.99 127.946L239.98 219.5L237.619 224.571C234.694 230.852 229.835 234.99 219.5 240C204.703 247.173 181.377 252.667 156 254.956C142.743 256.152 111.657 256.117 98.5 254.891M158.499 238.483C188.722 235.31 210.795 228.933 220.851 220.472C224.826 217.127 224.828 214.874 220.857 211.534C207.24 200.075 168.913 192.021 128 192.021C87.087 192.021 48.76 200.075 35.143 211.534C31.172 214.874 31.174 217.127 35.149 220.472C52.703 235.243 109.869 243.59 158.499 238.483M56.5 184.652C95.969 173.401 160.031 173.401 199.5 184.652C206.1 186.534 214.313 189.383 217.75 190.984L224 193.895L224 160.036L224 126.178L220.857 123.534C207.24 112.075 168.913 104.021 128 104.021C87.087 104.021 48.76 112.075 35.143 123.534L32 126.178L32 160.036L32 193.895L38.25 190.984C41.688 189.383 49.9 186.534 56.5 184.652M56.5 96.652C95.969 85.401 160.031 85.401 199.5 96.652C206.1 98.534 214.313 101.383 217.75 102.984L224 105.895L224 72.036L224 38.178L220.857 35.534C207.24 24.075 168.913 16.021 128 16.021C87.087 16.021 48.76 24.075 35.143 35.534L32 38.178L32 72.036L32 105.895L38.25 102.984C41.688 101.383 49.9 98.534 56.5 96.652" />
    <glyph glyph-name="notification"
      unicode="&#xEA4D;"
      horiz-adv-x="256" d="M111 226.646C62.875 210.535 21.7 196.412 19.5 195.261C12.071 191.376 5.312 182.832 2.081 173.241C-3.075 157.934 1.396 140.103 13.025 129.596C18.261 124.866 23.114 122.523 36.847 118.095L48.455 114.352L60.207 85.426C91.413 8.612 89.076 13.91 93.966 8.904C109.853 -7.36 136.832 -0.014 142.952 22.243C145.159 30.271 143.957 35.115 133.058 62.09C127.412 76.066 122.571 88.05 122.3 88.723C122.029 89.395 139.288 84.073 160.654 76.896C196.386 64.893 199.981 63.877 205.5 64.219C234.164 65.996 255.965 107.373 255.965 160C255.965 212.946 233.789 254.641 205.066 255.697C198.836 255.926 194.021 254.439 111 226.646M214.256 236.388C216.519 234.797 220.518 230.347 223.142 226.498C245.586 193.582 245.614 126.826 223.197 93.521C211.01 75.415 196.323 75.618 184.394 94.057C164.652 124.576 162.425 182.115 179.616 217.512C189.431 237.72 202.346 244.758 214.256 236.388M164.643 223.25C148.018 190.213 148.018 129.787 164.643 96.75C165.958 94.138 166.689 92 166.267 92C165.845 92 134.304 102.399 96.175 115.108C32.868 136.211 26.554 138.512 23.443 141.624C17.703 147.364 16.517 150.509 16.517 160C16.517 169.563 17.553 172.252 23.529 178.208C27.037 181.705 31.173 183.229 95.875 204.879C133.619 217.509 165.07 227.878 165.767 227.921C166.616 227.974 166.246 226.435 164.643 223.25M188.5 190.846C180.659 186.139 183.736 176.853 193.501 175.753C206.071 174.336 212.131 159.946 204.273 150.175C201.481 146.704 197.817 144.894 190.778 143.511C184.258 142.23 182.016 135.257 186.636 130.636C192.92 124.353 209.814 130.251 217.939 141.564C229.949 158.288 223.177 181.389 203.918 189.397C198.743 191.549 190.899 192.286 188.5 190.846M86.169 101.789L101.905 96.578L114.952 64.24C122.129 46.454 128 30.679 128 29.185C128 22.489 121.353 16 114.5 16.005C110.93 16.008 105.686 19 103.641 22.202C102.575 23.871 74.555 91.966 69.312 105.63C69.023 106.384 69.157 107 69.61 107C70.063 107 77.515 104.655 86.169 101.789" />
    <glyph glyph-name="handshake"
      unicode="&#xEA4E;"
      horiz-adv-x="256" d="M2.483 245.574L0 243.091L0 192.191L0 141.292L2.452 138.646C5.744 135.094 10.256 135.094 13.548 138.646L16 141.292L16 186.665L16 232.037L57.75 231.972L99.5 231.907L101.75 234.509C104.655 237.869 104.602 241.188 101.587 244.694L99.174 247.5L52.07 247.779L4.966 248.057L2.483 245.574M153 246.453C149.425 245.689 142.675 243.151 138 240.812C130.007 236.813 127.838 234.916 101.65 209.03C70.32 178.059 68.637 175.813 68.653 165C68.665 157.16 71.48 150.542 76.782 145.887C82.05 141.261 86.582 139.658 94.541 139.604C103.416 139.543 102.857 139.218 134.324 162.765L159.148 181.342L194.139 146.421C213.385 127.214 229.816 110.208 230.654 108.629C233.637 103.004 230.039 95.158 223.484 92.995C217.685 91.081 214.537 92.923 201.983 105.57C189.665 117.981 186.14 120.503 182.42 119.569C178.985 118.707 176 115.061 176 111.727C176 109.347 178.561 106.215 190.36 94.165C198.258 86.099 205.05 78.448 205.455 77.163C207.21 71.583 202.924 63.772 197.337 62.37C191.319 60.859 188.686 62.557 173.828 77.527C161.159 90.291 159.076 92 156.186 92C151.867 92 148 88.206 148 83.968C148 81.348 149.749 79.046 158.865 69.673C164.841 63.528 170.282 57.44 170.957 56.145C172.572 53.042 171.585 48.182 168.488 43.984C165.339 39.716 165.327 36.018 168.452 32.646C173.727 26.954 181.941 31.436 185.716 42.064L187.34 46.636L192.565 46.203C207.172 44.992 222 58.269 222 72.559C222 75.492 222.359 75.853 226.25 76.839C244.443 81.446 253.12 102.354 243.531 118.477C242.215 120.69 223.657 139.937 202.29 161.25C168.118 195.335 163.072 200 160.382 200C157.955 200 151.451 195.593 128.865 178.644C113.213 166.898 99.444 156.773 98.269 156.144C94.775 154.274 91.225 154.827 87.956 157.75C85.438 160.001 84.869 161.293 84.82 164.874L84.761 169.247L111.63 196.169C135.417 220.001 139.303 223.487 145.5 226.546C149.35 228.447 154.924 230.452 157.886 231.001C160.875 231.555 180.354 232 201.636 232L240 232L240 186.646L240 141.292L242.452 138.646C245.744 135.094 250.256 135.094 253.548 138.646L256 141.292L256 192.191L256 243.091L253.545 245.545L251.091 248L205.295 247.921C170.267 247.86 157.972 247.515 153 246.453M36.698 139.556C24.054 135.046 11.02 119.028 11.02 108C11.02 98.45 19.822 86.319 30.287 81.447C33.154 80.112 35.956 79.015 36.513 79.01C37.071 79.004 38.071 76.708 38.736 73.907C41.054 64.151 51.557 53.323 61.069 50.886C65.45 49.763 65.763 49.45 66.886 45.069C69.335 35.511 79.938 25.255 90.042 22.669C94.534 21.519 95.554 20.828 96.346 18.399C98.449 11.952 106.51 3.277 112.522 0.992C113.957 0.446 118.174 0 121.894 0C127.775 0 129.264 0.402 133.309 3.081C139.188 6.975 146.745 15.298 149.126 20.5C154.424 32.078 146.479 48.214 132.934 53.387C128.777 54.975 128.375 55.463 126.787 60.85C125.853 64.02 123.692 68.371 121.985 70.519C117.776 75.815 109.621 81.793 105.567 82.553C102.529 83.123 102.199 83.543 101.767 87.379C100.496 98.653 89.674 110.512 78.163 113.247C73.644 114.32 73.222 114.697 71.683 119.029C67.467 130.901 54.802 140.912 44 140.912C42.075 140.912 38.789 140.302 36.698 139.556M47.8 123.595C53.32 120.723 57.545 114.309 56.544 110.32C55.773 107.248 47.595 98.359 43.674 96.331C40.158 94.513 37.152 95.16 33.041 98.619C28.964 102.049 26.676 106.573 27.453 109.667C28.621 114.323 39.991 124.985 43.8 124.996C44.514 124.998 46.314 124.368 47.8 123.595M81.143 93.143C88.328 85.957 87.648 82.767 76.687 72.25C68.212 64.119 65.785 63.929 58.857 70.857C51.872 77.843 52.446 81.268 62.173 90.624C71.686 99.773 74.181 100.105 81.143 93.143M102.931 66.536C106.399 64.742 110.797 59.656 111.582 56.531C112.406 53.245 110.037 49.271 103.656 43.236C96.245 36.227 93.548 36.166 86.857 42.857C80.066 49.648 80.528 53.396 89.17 61.622C96.162 68.276 98.175 68.995 102.931 66.536M131.467 35.467C136.604 30.33 136.221 27.901 129.16 20.84C125.459 17.139 122.486 15 121.042 15C118.053 15 111 22.053 111 25.042C111 26.486 113.139 29.459 116.84 33.16C123.901 40.221 126.33 40.604 131.467 35.467" />
    <glyph glyph-name="add-27"
      unicode="&#xEA4F;"
      horiz-adv-x="256" d="M138.5 254.567C129.017 252.344 124.29 250.347 116.932 245.455C103.327 236.41 92.741 220.991 89.499 205.5C87.557 196.216 87.557 171.784 89.499 162.5C95.523 133.713 122.37 112.035 152 112.035C181.63 112.035 208.477 133.713 214.501 162.5C216.443 171.784 216.443 196.216 214.501 205.5C209.973 227.14 192.501 246.356 171.282 253.034C162.535 255.787 146.832 256.521 138.5 254.567M161.447 238.925C170.818 237.193 177.765 233.339 185.552 225.552C197.01 214.093 200 205.495 200 184C200 162.52 197.015 153.928 185.552 142.42C175.727 132.557 165.124 128 152 128C138.876 128 128.273 132.557 118.448 142.42C106.985 153.928 104 162.52 104 184C104 205.616 106.948 214.115 118.42 225.568C130.643 237.769 144.473 242.063 161.447 238.925M34.455 165.545C32.09 163.181 32 162.594 32 149.545L32 136L18.455 136C5.406 136 4.819 135.91 2.455 133.545C-0.734 130.357 -0.735 126.085 2.452 122.646C4.872 120.036 5.086 120 18.452 120L32 120L32 106.646C32 93.857 32.104 93.18 34.452 90.646C37.744 87.094 42.256 87.094 45.548 90.646C47.896 93.18 48 93.857 48 106.646L48 120L61.548 120C74.914 120 75.128 120.036 77.548 122.646C80.735 126.085 80.734 130.357 77.545 133.545C75.181 135.91 74.594 136 61.545 136L48 136L48 149.545C48 162.594 47.91 163.181 45.545 165.545C43.998 167.093 41.948 168 40 168C38.052 168 36.002 167.093 34.455 165.545M125.056 94.96C105.685 93.09 84.364 88.057 72.347 82.517C62.646 78.045 56.822 72.441 52.235 63.165L48.5 55.612L48.176 30.532L47.853 5.451L50.379 2.726L52.905 0L152 0L251.095 0L253.621 2.726L256.147 5.451L255.824 30.476L255.5 55.5L252.39 62C247.697 71.807 242.213 77.357 232.646 81.98C223.492 86.404 206.645 91.047 190.981 93.463C178.455 95.394 138.869 96.294 125.056 94.96M175.5 78.945C190.834 77.624 209.465 73.88 220.406 69.92C227.559 67.332 229.693 66.023 233.3 62.011C239.244 55.4 240 52.084 240 32.634L240 16L152 16L64 16L64 32.634C64 52.084 64.756 55.4 70.7 62.011C74.307 66.023 76.441 67.332 83.594 69.92C106.533 78.221 142.697 81.772 175.5 78.945" />
    <glyph glyph-name="delete-28"
      unicode="&#xEA50;"
      horiz-adv-x="256" d="M138.5 254.567C129.017 252.344 124.29 250.347 116.932 245.455C103.327 236.41 92.741 220.991 89.499 205.5C87.557 196.216 87.557 171.784 89.499 162.5C95.523 133.713 122.37 112.035 152 112.035C181.63 112.035 208.477 133.713 214.501 162.5C216.443 171.784 216.443 196.216 214.501 205.5C209.973 227.14 192.501 246.356 171.282 253.034C162.535 255.787 146.832 256.521 138.5 254.567M161.447 238.925C170.818 237.193 177.765 233.339 185.552 225.552C197.01 214.093 200 205.495 200 184C200 162.52 197.015 153.928 185.552 142.42C175.727 132.557 165.124 128 152 128C138.876 128 128.273 132.557 118.448 142.42C106.985 153.928 104 162.52 104 184C104 205.616 106.948 214.115 118.42 225.568C130.643 237.769 144.473 242.063 161.447 238.925M2.455 133.545C-0.734 130.357 -0.735 126.085 2.452 122.646L4.905 120L40 120L75.095 120L77.548 122.646C80.735 126.085 80.734 130.357 77.545 133.545L75.091 136L40 136L4.909 136L2.455 133.545M125.056 94.96C105.685 93.09 84.364 88.057 72.347 82.517C62.646 78.045 56.822 72.441 52.235 63.165L48.5 55.612L48.176 30.532L47.853 5.451L50.379 2.726L52.905 0L152 0L251.095 0L253.621 2.726L256.147 5.451L255.824 30.476L255.5 55.5L252.39 62C247.697 71.807 242.213 77.357 232.646 81.98C223.492 86.404 206.645 91.047 190.981 93.463C178.455 95.394 138.869 96.294 125.056 94.96M175.5 78.945C190.834 77.624 209.465 73.88 220.406 69.92C227.559 67.332 229.693 66.023 233.3 62.011C239.244 55.4 240 52.084 240 32.634L240 16L152 16L64 16L64 32.634C64 52.084 64.756 55.4 70.7 62.011C74.307 66.023 76.441 67.332 83.594 69.92C106.533 78.221 142.697 81.772 175.5 78.945" />
    <glyph glyph-name="i-check"
      unicode="&#xEA51;"
      horiz-adv-x="256" d="M10.455 245.545L8 243.091L8 128.191L8 13.292L10.452 10.646L12.905 8L128 8L243.095 8L245.548 10.646L248 13.292L248 128.191L248 243.091L245.545 245.545L243.091 248L128 248L12.909 248L10.455 245.545M232 128L232 24L128 24L24 24L24 128L24 232L128 232L232 232L232 128M142.294 137.781L104.027 99.562L89.686 113.781C77.205 126.156 74.928 128 72.127 128C67.821 128 64 124.18 64 119.874C64 117.039 66.163 114.486 82.258 98.329C98.975 81.547 100.81 80 104.006 80C107.271 80 110.215 82.722 149.748 122.286C188.128 160.697 192 164.87 192 167.831C192 172.205 188.203 176 183.826 176C180.863 176 177.013 172.457 142.294 137.781" />
    <glyph glyph-name="shape-rectangle"
      unicode="&#xEA52;"
      horiz-adv-x="256" d="M10.455 245.545L8 243.091L8 128.191L8 13.292L10.452 10.646L12.905 8L128 8L243.095 8L245.548 10.646L248 13.292L248 128.191L248 243.091L245.545 245.545L243.091 248L128 248L12.909 248L10.455 245.545M232 128L232 24L128 24L24 24L24 128L24 232L128 232L232 232L232 128" />
    <glyph glyph-name="ban"
      unicode="&#xEA53;"
      horiz-adv-x="256" d="M108.5 254.445C52.322 244.952 9.966 202.042 1.455 146C-6.75 91.975 22.552 37.106 72.5 12.966C121.039 -10.492 177.702 -1.335 216.645 36.262C237.237 56.142 250.195 81.352 254.545 110C260.553 149.555 246.4 190.784 216.877 219.734C188.93 247.14 146.222 260.818 108.5 254.445M142.566 238.928C152.073 237.605 165.141 233.878 174.463 229.829C181.798 226.644 196.264 217.575 199.219 214.311C200.863 212.494 197.951 209.446 122.081 133.581L43.234 54.739L38.713 60.499C25.535 77.289 16 105.232 16 127.059C16 156.999 27.895 185.818 49 207.011C73.5 231.612 108.738 243.633 142.566 238.928M218.048 194.25C224.578 185.631 232.292 169.928 235.417 158.888C241.449 137.582 241.442 118.271 235.394 97.112C226.798 67.039 205.791 41.921 177.283 27.627C146.956 12.421 109.451 12.268 79.5 27.228C71.221 31.363 61.196 37.709 57.212 41.337L54.924 43.42L133.71 122.21C177.042 165.544 212.594 201 212.714 201C212.834 201 215.235 197.962 218.048 194.25" />
    <glyph glyph-name="check-single"
      unicode="&#xEA54;"
      horiz-adv-x="256" d="M235.229 238.25C234.133 237.288 200.535 193.413 160.566 140.75C120.598 88.088 87.591 45 87.218 45C86.844 45 71.44 60.075 52.985 78.5C22.644 108.793 19.12 112 16.17 112C11.808 112 8 108.202 8 103.851C8 100.924 11.639 96.963 45.75 62.767C66.513 41.952 84.513 24.666 85.75 24.353C86.988 24.039 89.042 24.045 90.315 24.364C91.927 24.769 115.53 55.067 168.065 124.167C250.516 232.618 248 229.242 248 231.4C248 238.021 239.909 242.361 235.229 238.25" />
    <glyph glyph-name="check-double"
      unicode="&#xEA55;"
      horiz-adv-x="256" d="M172.352 206.715C171.171 206.047 146.213 176.358 116.891 140.74L63.577 75.981L41.487 97.99C21.798 117.609 19.046 120 16.154 120C11.821 120 8 116.193 8 111.876C8 109.009 10.788 105.859 33.75 82.787C47.913 68.556 60.576 56.643 61.89 56.313C63.205 55.983 65.346 56.115 66.648 56.606C68.761 57.404 177.286 187.902 182.155 195.5C186.81 202.764 179.717 210.879 172.352 206.715M236.352 206.715C235.171 206.047 210.225 176.372 180.916 140.771L127.627 76.041L121.4 82.021C116.497 86.728 114.507 88 112.041 88C107.851 88 104 84.134 104 79.928C104 77.256 105.596 75.151 114.27 66.382C122.822 57.736 125.047 56 127.578 56C129.25 56 131.349 56.562 132.243 57.25C134.285 58.821 243.542 191.42 246.156 195.5C250.81 202.765 243.717 210.879 236.352 206.715" />
    <glyph glyph-name="check"
      unicode="&#xEA56;"
      horiz-adv-x="256" d="M162.271 141.764L88.01 67.529L53.722 101.764C22.698 132.74 19.122 136 16.171 136C11.799 136 8 132.203 8 127.835C8 124.884 11.587 120.988 46.253 86.289C82.009 50.499 84.734 48 88.002 48C91.3 48 95.919 52.423 169.749 126.27C241.564 198.102 248 204.809 248 207.815C248 212.213 244.211 216 239.811 216C236.801 216 230.423 209.894 162.271 141.764" />
    <glyph glyph-name="preview"
      unicode="&#xEA58;"
      horiz-adv-x="256" d="M112.814 214.922C90.974 211.718 67.916 201.145 46.225 184.386C29.073 171.134 4 143.732 1.13 135.101C-1.905 125.971 0.606 118.783 11.264 106.101C52.301 57.268 101.155 33.795 145.615 41.548C179.67 47.487 214.403 69.965 244.433 105.5C254.98 117.98 257.336 124.263 255.047 133.805C253.591 139.875 244.971 151.024 230.506 165.546C192.838 203.364 151.694 220.625 112.814 214.922M150.5 197.149C178.589 189.719 207.504 169.501 232.118 140.078C236.453 134.896 240 129.804 240 128.762C240 125.791 238.26 123.153 229.932 113.5C211.996 92.709 193.131 77.521 172.5 67.261C162.39 62.233 153.884 59.462 142.619 57.526C131.533 55.621 124.952 55.609 113.5 57.473C92.001 60.972 72.236 70.927 50.5 89.204C33.796 103.249 16 123.353 16 128.178C16 133.588 42.372 161.752 59 174.101C77.197 187.614 95.722 195.946 114.5 199.063C122.18 200.338 142.536 199.255 150.5 197.149M113.173 182.033C89.329 175.583 72.043 152.671 72.032 127.5C72.021 102.669 90.374 79.688 115.064 73.615C144.552 66.361 175.47 85.446 182.494 115.24C188.995 142.81 172.895 171.837 146 181.039C136.679 184.228 122.837 184.647 113.173 182.033M136.006 166.999C148.022 164.72 158.686 156.146 164.268 144.274C167.149 138.146 167.453 136.594 167.453 128C167.453 119.416 167.148 117.85 164.283 111.759C156.427 95.051 139.126 85.857 121.361 88.951C108.156 91.25 97.543 99.41 91.693 111.759C88.789 117.891 88.503 119.359 88.529 128C88.555 136.555 88.874 138.174 91.738 144.274C99.908 161.68 117.212 170.563 136.006 166.999" />
    <glyph glyph-name="link"
      unicode="&#xEA59;"
      horiz-adv-x="256" d="M170.5 246.567C153.175 242.505 148.064 238.764 116.886 207.327C92.356 182.593 91.102 181.14 87.239 173C82.148 162.273 80.727 156.055 80.727 144.5C80.727 133.044 82.151 126.715 87.039 116.44C93.576 102.698 106.828 90.581 121.77 84.685C127.632 82.372 130.661 82.57 133.545 85.455C138.593 90.502 135.952 95.759 126.162 100.151C114.763 105.266 106.852 112.754 101.497 123.5C95.09 136.356 94.936 151.802 101.083 165C103.754 170.737 107.243 174.624 130.805 198.117C160.364 227.589 162.288 228.983 176.45 231.185C192.405 233.665 205.891 229.195 217.58 217.552C229.893 205.287 234.417 190.39 230.866 173.799C228.512 162.801 225.536 158.456 208.37 140.954C199.098 131.502 191.86 123.289 191.485 121.797C190.281 116.999 194.309 112.09 199.5 112.028C202.075 111.997 204.921 114.435 219.594 129.246C235.072 144.869 237.082 147.303 240.862 155C250.301 174.22 250.314 193.793 240.9 212.889C233.61 227.678 219.139 240.044 203.282 245.034C194.535 247.787 178.832 248.521 170.5 246.567M122.576 170.667C117.172 165.263 119.795 160.586 131.313 155.089C156.122 143.248 166.412 114.653 154.554 90.5C151.496 84.272 148.218 80.623 124.809 57.398C96.801 29.611 94.197 27.638 82.201 25.115C65.529 21.608 50.704 26.116 38.448 38.42C26.136 50.781 21.623 65.6 25.115 82.201C27.429 93.202 30.388 97.524 47.603 115.046C56.909 124.517 64.14 132.708 64.515 134.203C65.719 139.001 61.691 143.91 56.5 143.972C53.925 144.003 51.079 141.565 36.406 126.754C20.928 111.131 18.918 108.697 15.138 101C2.517 75.3 7.054 46.824 26.939 26.939C46.811 7.068 75.21 2.531 101 15.109C109.133 19.076 110.694 20.448 137.136 46.877C163.924 73.652 164.896 74.761 168.784 83C173.857 93.749 175.273 99.968 175.273 111.5C175.273 123.055 173.849 129.286 168.775 139.944C163.329 151.384 152.045 162.823 140.726 168.38C130.272 173.513 125.965 174.055 122.576 170.667" />
    <glyph glyph-name="b-check"
      unicode="&#xEA5A;"
      horiz-adv-x="256" d="M138.311 213.793L112.035 187.585L101.663 197.793C92.88 206.435 90.801 208 88.1 208C83.832 208 80 204.165 80 199.894C80 197.119 81.879 194.807 94.262 182.349C107.174 169.358 108.853 168 112.008 168C115.245 168 117.641 170.152 145.746 198.299C172.983 225.577 176 228.922 176 231.845C176 236.198 172.195 240 167.839 240C164.921 240 161.89 237.31 138.311 213.793M48.734 142.97C39.404 140.627 31.095 133.89 26.812 125.193C24.946 121.404 24.5 118.862 24.5 112C24.5 101.879 26.692 96.466 33.579 89.579C44.752 78.406 61.733 76.939 74.421 86.051C95.042 100.86 91.331 131.659 67.744 141.47C62.969 143.456 53.609 144.195 48.734 142.97M192.734 142.97C183.404 140.627 175.095 133.89 170.812 125.193C168.946 121.404 168.5 118.862 168.5 112C168.5 101.879 170.692 96.466 177.579 89.579C188.752 78.406 205.733 76.939 218.421 86.051C239.042 100.86 235.331 131.659 211.744 141.47C206.969 143.456 197.609 144.195 192.734 142.97M62.655 126.359C72.696 121.595 74.921 109.206 67.194 101.084C63.075 96.753 58.43 95.321 52.259 96.479C47.492 97.373 41.351 103.614 40.435 108.493C37.956 121.707 50.761 132.003 62.655 126.359M206.655 126.359C216.696 121.595 218.921 109.206 211.194 101.084C207.075 96.753 202.43 95.321 196.259 96.479C191.492 97.373 185.351 103.614 184.435 108.493C181.956 121.707 194.761 132.003 206.655 126.359M40.484 70.626C30.368 68.965 26.347 67.651 17 62.954C2.284 55.558 0 50.933 0 28.52C0 13.742 0.072 13.214 2.452 10.646L4.905 8L56 8L107.095 8L109.548 10.646C111.928 13.214 112 13.742 112 28.52C112 45.744 110.94 50.353 105.707 55.881C101.629 60.19 86.133 67.645 77.293 69.551C67.446 71.675 49.976 72.185 40.484 70.626M184.484 70.626C174.368 68.965 170.347 67.651 161 62.954C146.284 55.558 144 50.933 144 28.52C144 13.742 144.072 13.214 146.452 10.646L148.905 8L200 8L251.095 8L253.548 10.646C255.928 13.214 256 13.742 256 28.52C256 45.744 254.94 50.353 249.707 55.881C245.629 60.19 230.133 67.645 221.293 69.551C211.446 71.675 193.976 72.185 184.484 70.626M70.825 54.537C79.81 52.647 90.481 48.246 93.57 45.158C95.797 42.93 96 41.946 96 33.364L96 24L56 24L16 24L16 33.5C16 44.109 16.565 45.232 23.709 48.823C36.73 55.37 55.845 57.688 70.825 54.537M214.825 54.537C223.81 52.647 234.481 48.246 237.57 45.158C239.797 42.93 240 41.946 240 33.364L240 24L200 24L160 24L160 33.5C160 44.109 160.565 45.232 167.709 48.823C180.73 55.37 199.845 57.688 214.825 54.537" />
    <glyph glyph-name="e-delete"
      unicode="&#xEA5B;"
      horiz-adv-x="256" d="M10.455 133.545C7.266 130.357 7.265 126.085 10.452 122.646L12.905 120L128 120L243.095 120L245.548 122.646C248.735 126.085 248.734 130.357 245.545 133.545L243.091 136L128 136L12.909 136L10.455 133.545" />
    <glyph glyph-name="menu-5"
      unicode="&#xEA5C;"
      horiz-adv-x="256" d="M24.734 158.97C15.404 156.627 7.095 149.89 2.812 141.193C0.946 137.404 0.5 134.862 0.5 128C0.5 117.879 2.692 112.466 9.579 105.579C20.752 94.406 37.733 92.939 50.421 102.051C71.042 116.86 67.331 147.659 43.744 157.47C38.969 159.456 29.609 160.195 24.734 158.97M120.734 158.97C111.404 156.627 103.095 149.89 98.812 141.193C96.946 137.404 96.5 134.862 96.5 128C96.5 117.879 98.692 112.466 105.579 105.579C116.752 94.406 133.733 92.939 146.421 102.051C167.042 116.86 163.331 147.659 139.744 157.47C134.969 159.456 125.609 160.195 120.734 158.97M216.734 158.97C207.404 156.627 199.095 149.89 194.812 141.193C192.946 137.404 192.5 134.862 192.5 128C192.5 117.879 194.692 112.466 201.579 105.579C212.752 94.406 229.733 92.939 242.421 102.051C263.042 116.86 259.331 147.659 235.744 157.47C230.969 159.456 221.609 160.195 216.734 158.97M38.655 142.359C48.696 137.595 50.921 125.206 43.194 117.084C39.075 112.753 34.43 111.321 28.259 112.479C23.492 113.373 17.351 119.614 16.435 124.493C13.956 137.707 26.761 148.003 38.655 142.359M134.655 142.359C144.696 137.595 146.921 125.206 139.194 117.084C135.075 112.753 130.43 111.321 124.259 112.479C119.492 113.373 113.351 119.614 112.435 124.493C109.956 137.707 122.761 148.003 134.655 142.359M230.655 142.359C240.696 137.595 242.921 125.206 235.194 117.084C231.075 112.753 226.43 111.321 220.259 112.479C215.492 113.373 209.351 119.614 208.435 124.493C205.956 137.707 218.761 148.003 230.655 142.359" />
    <glyph glyph-name="move-layer-up"
      unicode="&#xEA5D;"
      horiz-adv-x="256" d="M10.455 245.545C7.266 242.357 7.265 238.085 10.452 234.646L12.905 232L128 232L243.095 232L245.548 234.646C248.735 238.085 248.734 242.357 245.545 245.545L243.091 248L128 248L12.909 248L10.455 245.545M86.265 161.735C52.426 127.897 48 123.114 48 120.382C48 116.06 51.955 112 56.164 112C59.104 112 62.397 114.967 89.712 142.228L120 172.456L120 88.874L120 5.292L122.452 2.646C125.744 -0.906 130.256 -0.906 133.548 2.646L136 5.292L136 88.874L136 172.456L166.288 142.228C193.603 114.967 196.896 112 199.836 112C204.045 112 208 116.06 208 120.382C208 123.114 203.574 127.897 169.735 161.735C134.082 197.389 131.234 200 128 200C124.766 200 121.918 197.389 86.265 161.735" />
    <glyph glyph-name="alpha-order"
      unicode="&#xEA5E;"
      horiz-adv-x="256" d="M178.455 253.545L176 251.091L176 143.325L176 35.559L153.699 57.779C133.815 77.592 131.047 80 128.154 80C123.805 80 120 76.194 120 71.845C120 68.922 123.017 65.577 150.254 38.299C178.385 10.126 180.753 8 184 8C187.247 8 189.615 10.126 217.746 38.299C244.983 65.577 248 68.922 248 71.845C248 76.194 244.195 80 239.846 80C236.953 80 234.185 77.592 214.301 57.779L192 35.559L192 143.325L192 251.091L189.545 253.545C186.298 256.793 181.702 256.793 178.455 253.545M54.661 246.26C53.814 244.891 17 145.686 17 144.775C17 144.306 20.894 144.052 25.653 144.211L34.305 144.5L39.038 158L43.772 171.5L63.748 171.77L83.725 172.041L88.615 158.27L93.506 144.5L102.372 144.209C111.183 143.92 111.233 143.933 110.622 146.209C110.283 147.469 101.775 170.55 91.714 197.5L73.422 246.5L64.292 246.786C59.271 246.944 54.937 246.707 54.661 246.26M71.322 210.218C75.074 198.823 78.374 188.937 78.656 188.25C79.051 187.283 75.77 187 64.155 187L49.144 187L56.072 207.21C59.882 218.326 63 228.226 63 229.21C63 233.942 65.052 229.259 71.322 210.218M29 103.5L29 96L53.5 96C66.975 96 78 95.758 78 95.461C78 95.165 66.525 77.955 52.5 57.217L27 19.511L27 13.756L27 8L64.044 8L101.088 8L100.794 15.25L100.5 22.5L74.23 23L47.96 23.5L73.48 60.953L99 98.405L99 104.703L99 111L64 111L29 111L29 103.5" />
    <glyph glyph-name="enlarge"
      unicode="&#xEA5F;"
      horiz-adv-x="256" d="M181.656 173.656L133.656 221.656C130.528 224.784 125.472 224.784 122.344 221.656L74.344 173.656C71.216 170.528 71.216 165.472 74.344 162.344S82.528 159.216 85.656 162.344L128 204.688L170.344 162.344C171.904 160.784 173.952 160 176 160S180.096 160.784 181.656 162.344C184.784 165.472 184.784 170.528 181.656 173.656zM170.344 93.656L128 51.312L85.656 93.656C82.528 96.784 77.472 96.784 74.344 93.656S71.216 85.472 74.344 82.344L122.344 34.344C123.904 32.784 125.952 32 128 32S132.096 32.784 133.656 34.344L181.656 82.344C184.784 85.472 184.784 90.528 181.656 93.656S173.472 96.784 170.344 93.656z" />
  </font>
</defs>
</svg>
